<?xml version="1.0" standalone="no"?>
<!DOCTYPE svg PUBLIC "-//W3C//DTD SVG 1.1//EN" "http://www.w3.org/Graphics/SVG/1.1/DTD/svg11.dtd" >
<svg xmlns="http://www.w3.org/2000/svg">
<metadata>Generated by IcoMoon</metadata>
<defs>
<font id="ZPicon" horiz-adv-x="1024">
<font-face units-per-em="1024" ascent="960" descent="-64" />
<missing-glyph horiz-adv-x="1024" />
<glyph unicode="&#x20;" horiz-adv-x="512" d="" />
<glyph unicode="&#xe900;" glyph-name="SpeakVoice" d="M256 266.667c-76.576-0.026-138.647-62.097-138.667-138.675-0.005-17.673-14.335-31.996-32.008-31.991s-31.997 14.336-31.992 32.009c0.029 111.915 90.745 202.628 202.659 202.658h170.675c111.915-0.030 202.637-90.743 202.667-202.658 0.004-17.673-14.319-32.004-31.991-32.009s-32.004 14.319-32.009 31.991c-0.021 76.578-62.089 138.65-138.667 138.675zM426.667 266.667h-170.667zM336.235 682.792c-58.942 0-106.724-47.782-106.724-106.724s47.782-106.726 106.724-106.726c58.942 0 106.726 47.783 106.726 106.726s-47.784 106.724-106.726 106.724zM165.51 576.068c0 94.288 76.436 170.724 170.724 170.724s170.726-76.436 170.726-170.724c0-94.288-76.437-170.726-170.726-170.726s-170.724 76.437-170.724 170.726zM919.019 832.896c-12.275 12.713-32.533 13.067-45.248 0.79s-13.065-32.535-0.789-45.248c101.803-105.421 101.803-276.788 0-382.208-12.275-12.715-11.925-32.973 0.789-45.248s32.973-11.925 45.248 0.789c125.751 130.223 125.751 340.904 0 471.125zM732.399 748.086c12.497 12.497 32.759 12.497 45.257 0 87.104-87.109 87.104-228.339 0-315.446-12.497-12.497-32.759-12.497-45.257 0s-12.497 32.755 0 45.252c62.114 62.116 62.114 162.824 0 224.939-12.497 12.497-12.497 32.758 0 45.255zM605.5 680.513c12.493 12.497 32.755 12.497 45.252 0 49.805-49.803 49.805-130.548 0-180.353-12.497-12.497-32.759-12.497-45.252 0-12.497 12.498-12.497 32.759-0.004 45.257 24.811 24.809 24.811 65.033 0 89.841-12.493 12.497-12.493 32.758 0.004 45.255z" />
<glyph unicode="&#xe901;" glyph-name="ArrowLeftFill" d="M512 842.667c229.769 0 416-186.231 416-416s-186.231-416-416-416c-229.769 0-416 186.231-416 416s186.231 416 416 416zM491.959 532.040c12.497 12.497 12.497 32.758 0 45.255s-32.755 12.497-45.252 0l-128.343-128.347c-5.59-5.76-9.031-13.619-9.031-22.281 0-8.845 3.587-16.849 9.385-22.639l127.988-127.987c12.497-12.497 32.755-12.497 45.252 0s12.497 32.755 0 45.252l-73.371 73.374h264.079c17.673 0 32 14.327 32 32s-14.327 32-32 32h-264.079l73.371 73.373z" />
<glyph unicode="&#xe902;" glyph-name="CalendarScheduleLeft" d="M491.524 470.639c12.493-12.497 12.493-32.759 0-45.257l-30.737-30.737h179.268c17.673 0 32-14.327 32-32s-14.327-32-32-32h-179.277l30.746-30.746c12.493-12.497 12.493-32.759 0-45.257-12.497-12.493-32.759-12.493-45.257 0l-85.369 85.372c-12.497 12.497-12.497 32.755 0 45.252l85.369 85.372c12.497 12.497 32.759 12.497 45.257 0zM319.922 842.834c17.673 0 32-14.327 32-32v-32.032h320.163v32.032c0 17.673 14.323 32 32 32 17.673 0 32-14.327 32-32v-32.032h32.077c88.367 0 160-71.634 160-160v-448.293c0-88.367-71.633-160-160-160h-512.318c-88.366 0-160 71.633-160 160v448.293c0 88.366 71.634 160 160 160h32.078v32.032c0 17.673 14.327 32 32 32zM287.922 714.802h-32.078c-53.019 0-96-42.981-96-96v-448.293c0-53.018 42.981-96 96-96h512.318c53.022 0 96 42.982 96 96v448.293c0 53.019-42.978 96-96 96h-32.077v-32.022c0-17.673-14.327-32-32-32-17.677 0-32 14.327-32 32v32.022h-320.163v-32.022c0-17.673-14.327-32-32-32s-32 14.327-32 32v32.022z" />
<glyph unicode="&#xe903;" glyph-name="SupportFill" d="M810.667 213.334h-42.667c-23.552 0-42.667 19.115-42.667 42.667v213.333c0 23.552 19.115 42.667 42.667 42.667h42.667c47.147 0 85.333-38.187 85.333-85.333v-128c0-47.147-38.187-85.333-85.333-85.333zM768 480c-5.879 0-10.667-4.787-10.667-10.667v-213.333c0-5.879 4.787-10.667 10.667-10.667h42.667c29.474 0 53.333 23.859 53.333 53.333v128c0 29.474-23.859 53.333-53.333 53.333h-42.667zM693.333 469.334c0 41.225 33.442 74.667 74.667 74.667h42.667c64.819 0 117.333-52.514 117.333-117.333v-128c0-64.819-52.514-117.333-117.333-117.333h-42.667c-41.225 0-74.667 33.442-74.667 74.667v213.333zM256 213.334h-42.667c-47.147 0-85.333 38.187-85.333 85.333v128c0 47.147 38.187 85.333 85.333 85.333h42.667c23.552 0 42.667-19.115 42.667-42.667v-213.333c0-23.552-19.115-42.667-42.667-42.667zM213.333 480c-29.474 0-53.333-23.859-53.333-53.333v-128c0-29.474 23.86-53.333 53.333-53.333h42.667c5.879 0 10.667 4.787 10.667 10.667v213.333c0 5.879-4.788 10.667-10.667 10.667h-42.667zM96 426.667c0 64.819 52.514 117.333 117.333 117.333h42.667c41.225 0 74.667-33.442 74.667-74.667v-213.333c0-41.225-33.442-74.667-74.667-74.667h-42.667c-64.82 0-117.333 52.514-117.333 117.333v128zM202.667 533.334c0 170.846 138.487 309.333 309.333 309.333s309.333-138.487 309.333-309.333v-21.333c0-17.673-14.327-32-32-32s-32 14.327-32 32v21.333c0 135.5-109.833 245.333-245.333 245.333s-245.333-109.833-245.333-245.333v-21.333c0-17.673-14.327-32-32-32s-32 14.327-32 32v21.333zM538.667 32h-53.333c-29.44 0-53.333 23.893-53.333 53.333s23.893 53.333 53.333 53.333h53.333c29.44 0 53.333-23.893 53.333-53.333s-23.893-53.333-53.333-53.333zM485.333 106.667c-11.767 0-21.333-9.566-21.333-21.333s9.566-21.333 21.333-21.333h53.333c11.767 0 21.333 9.566 21.333 21.333s-9.566 21.333-21.333 21.333h-53.333zM400 85.334c0 47.113 38.221 85.333 85.333 85.333h53.333c47.113 0 85.333-38.221 85.333-85.333s-38.221-85.333-85.333-85.333h-53.333c-47.113 0-85.333 38.221-85.333 85.333zM768 245.334c17.673 0 32-14.327 32-32v-42.667c0-64.819-52.514-117.333-117.333-117.333h-90.667c-17.673 0-32 14.327-32 32s14.327 32 32 32h90.667c29.474 0 53.333 23.859 53.333 53.333v42.667c0 17.673 14.327 32 32 32z" />
<glyph unicode="&#xe904;" glyph-name="ArrowTopRight" d="M745.83 660.494c12.497-12.497 12.497-32.758 0-45.255l-422.401-422.399c-12.497-12.497-32.758-12.497-45.255 0s-12.497 32.755 0 45.252l422.399 422.401c12.497 12.497 32.759 12.497 45.257 0zM394.67 640.226c0.125 17.673 14.552 31.898 32.223 31.773l296.533-2.091c17.498-0.123 31.65-14.274 31.774-31.769l2.133-296.576c0.128-17.673-14.093-32.102-31.765-32.23s-32.102 14.097-32.23 31.77l-1.907 265.030-264.987 1.868c-17.673 0.125-31.898 14.552-31.773 32.225z" />
<glyph unicode="&#xe905;" glyph-name="BackCurved" d="M363.961 534.628c12.497-12.497 12.497-32.756 0-45.254l-148.039-148.041 148.039-148.041c12.497-12.497 12.497-32.755 0-45.252s-32.758-12.497-45.255 0l-170.667 170.667c-12.497 12.497-12.497 32.755 0 45.252l170.667 170.668c12.497 12.497 32.758 12.497 45.255 0zM522.667 682.667c0 17.673 14.327 32 32 32h85.333c111.966 0 202.667-90.7 202.667-202.667s-90.701-202.667-202.667-202.667h-426.667c-17.673 0-32 14.327-32 32s14.327 32 32 32h426.667c76.621 0 138.667 62.046 138.667 138.667s-62.046 138.667-138.667 138.667h-85.333c-17.673 0-32 14.327-32 32z" />
<glyph unicode="&#xe906;" glyph-name="BusinessChart" d="M625.493 488.534h234.667c21.76 0 42.667 9.387 57.173 26.029 14.080 16.213 20.48 37.973 17.067 58.88-22.613 153.173-145.493 275.627-298.24 298.667-21.333 2.987-42.667-2.987-58.88-17.067-16.64-14.507-26.027-34.987-26.027-57.173v-234.667c0-40.96 33.707-74.669 74.667-74.669h-0.427zM614.827 797.869c0 4.693 2.56 7.68 3.84 8.533 1.28 1.28 3.413 2.56 6.4 2.56 0.427 0 0.853 0 1.28 0 125.013-18.773 225.707-119.467 244.48-244.48 0.427-3.413-0.853-5.973-2.56-7.68-0.853-1.28-3.84-3.84-8.533-3.84h-234.667c-5.973 0-10.667 4.693-10.667 10.667v234.24h0.427zM860.16 413.867h-174.507c-30.293 0-57.6-17.92-69.12-46.080s-5.12-59.733 16.213-81.493l123.307-123.307c14.080-14.080 33.28-21.76 53.333-21.76 1.707 0 3.84 0 5.547 0 21.333 1.707 40.96 12.373 53.76 29.44 34.56 46.507 57.173 101.12 65.707 157.867 3.413 21.333-2.987 42.667-17.067 58.88-14.507 16.64-34.987 26.027-57.173 26.027v0.427zM817.493 208.64c-2.133-2.56-5.12-3.413-6.827-3.413s-5.547 0-8.96 3.413l-123.307 123.307c-4.267 4.267-3.413 8.533-2.133 11.52 0.853 2.56 3.84 6.4 9.813 6.4h174.507c4.693 0 7.68-2.987 8.533-3.84 1.28-1.707 2.987-4.267 2.56-7.68-7.253-46.507-25.6-91.307-53.76-129.28l-0.427-0.427zM479.147 345.6c0 0-2.987 4.693-2.987 7.68v259.842c0 21.76-9.387 42.667-26.027 57.173-16.213 14.080-37.975 20.053-58.455 17.067-95.147-14.080-181.76-67.413-237.653-146.773-56.747-79.789-77.227-177.922-58.453-276.055 27.307-139.52 139.52-251.307 279.040-277.76 23.467-4.267 46.933-6.827 69.975-6.827 75.947 0 148.907 23.893 210.773 69.547 17.067 12.8 27.733 32.427 29.44 53.76 1.707 21.76-6.4 43.52-21.76 58.88l-183.467 183.467h-0.427zM616.96 100.694c-66.133-48.64-147.627-66.987-230.828-51.627-114.347 21.76-206.080 113.067-228.267 227.413-15.787 80.64 1.28 161.28 47.787 226.987 45.653 64.855 116.907 108.802 194.987 120.322 3.413 0.853 5.973-0.853 7.253-2.133 1.28-0.853 3.84-3.84 3.84-8.533v-259.842c0-20.053 7.68-38.827 21.761-52.907l183.467-183.467c3.413-3.413 3.413-7.253 3.413-8.96 0-2.133-0.853-5.12-3.84-7.253h0.427z" />
<glyph unicode="&#xe907;" glyph-name="PinDots" d="M769.28 736.214c-68.693 68.693-160 106.667-257.28 106.667s-188.161-37.973-256.854-106.667c-68.693-68.693-106.667-160-106.667-256.853s37.973-188.587 106.667-257.28l179.201-179.2c21.333-21.333 49.493-32 78.080-32s56.32 10.667 78.080 32l179.2 179.2c141.653 141.653 141.653 372.48 0 514.133h-0.427zM724.053 267.307l-179.2-179.2c-17.92-17.92-47.36-17.92-65.28 0l-179.201 179.2c-56.747 56.747-87.893 131.84-87.893 212.053s31.147 155.307 87.893 212.053c56.747 56.747 131.841 87.893 212.054 87.893s155.307-31.147 212.053-87.893c116.907-116.907 116.907-306.773 0-423.68l-0.427-0.427zM546.987 469.547c0-8.107-3.84-18.347-9.813-24.32s-15.787-10.667-24.747-10.667h-0.427c-12.8 0-27.307 9.387-32 21.333-5.12 11.947-1.707 29.013 7.253 37.973 8.96 9.387 26.453 12.8 38.4 7.68s21.333-19.2 21.333-32zM392.959 494.294c8.96-8.96 12.373-26.027 7.68-37.973-5.12-11.947-19.2-21.333-32.427-21.333-8.107 0-17.92 3.84-23.893 9.387-6.4 5.973-11.093 16.64-11.093 25.6 0 12.8 9.387 27.307 21.333 32 11.947 5.12 29.013 1.707 38.4-7.68zM690.773 469.547c0-8.107-3.84-18.347-9.813-24.32s-16.213-10.667-24.747-10.667h-0.427c-12.8 0-27.307 9.387-32 21.333-5.12 11.947-1.707 29.44 7.68 38.4 8.96 8.96 26.027 12.373 37.547 7.253 11.947-4.693 21.76-19.2 21.76-32.427v0.427z" />
<glyph unicode="&#xe908;" glyph-name="Switches" d="M288 479.574h448c99.84 0 181.333 81.493 181.333 181.333s-81.493 181.333-181.333 181.333h-448c-99.84 0-181.333-81.493-181.333-181.333s81.493-181.333 181.333-181.333zM288 778.24h448c64.853 0 117.333-52.48 117.333-117.333s-52.48-117.333-117.333-117.333h-448c-64.853 0-117.333 52.48-117.333 117.333s52.48 117.333 117.333 117.333zM736 372.907h-448c-99.84 0-181.333-81.493-181.333-181.333s81.493-181.333 181.333-181.333h448c99.84 0 181.333 81.493 181.333 181.333s-81.493 181.333-181.333 181.333zM736 74.24h-448c-64.853 0-117.333 52.48-117.333 117.333s52.48 117.333 117.333 117.333h448c64.853 0 117.333-52.48 117.333-117.333s-52.48-117.333-117.333-117.333zM789.333 191.574c0-29.44-23.893-53.333-53.333-53.333s-53.333 23.893-53.333 53.333c0 14.080 5.547 27.307 15.36 37.547 10.24 10.24 23.467 15.787 37.973 15.787 29.44 0 53.333-23.893 53.333-53.333zM234.667 660.907c0 14.080 5.547 27.307 15.36 37.547 10.24 10.24 23.467 15.787 37.973 15.787 29.44 0 53.333-23.893 53.333-53.333s-23.893-53.333-53.333-53.333c-29.44 0-53.333 23.893-53.333 53.333z" />
<glyph unicode="&#xe909;" glyph-name="DocumentText" d="M768.213 842.454h-512.427c-88.32 0-160-71.68-160-160v-512.427c0-88.32 71.68-160 160-160h512.427c88.32 0 160 71.68 160 160v512.427c0 88.32-71.68 160-160 160zM864.213 170.027c0-52.907-43.093-96-96-96h-512.427c-52.907 0-96 43.093-96 96v512.427c0 52.907 43.093 96 96 96h512.427c52.907 0 96-43.093 96-96v-512.427zM319.787 458.454h106.667c29.44 0 53.333 23.893 53.333 53.333v106.667c0 29.44-23.893 53.333-53.333 53.333h-106.667c-29.44 0-53.333-23.893-53.333-53.333v-106.667c0-29.44 23.893-53.333 53.333-53.333zM330.453 607.787h85.333v-85.333h-85.333v85.333zM757.12 639.787c0-17.493-14.507-32-32-32h-149.333c-17.493 0-32 14.507-32 32s14.507 32 32 32h149.333c17.493 0 32-14.507 32-32zM757.12 490.454c0-17.493-14.507-32-32-32h-149.333c-17.493 0-32 14.507-32 32s14.507 32 32 32h149.333c17.493 0 32-14.507 32-32zM757.12 362.454c0-17.493-14.507-32-32-32h-426.667c-17.493 0-32 14.507-32 32s14.507 32 32 32h427.093c17.493 0 32-14.507 32-32h-0.427zM757.12 213.12c0-17.493-14.507-32-32-32h-426.667c-17.493 0-32 14.507-32 32s14.507 32 32 32h427.093c17.493 0 32-14.507 32-32h-0.427z" />
<glyph unicode="&#xe90a;" glyph-name="WarningOutline" d="M512 842.24c-229.547 0-416-186.453-416-416s186.453-416 416-416c229.547 0 416 186.453 416 416s-186.453 416-416 416zM512 74.24c-194.133 0-352 157.867-352 352s157.867 352 352 352c194.133 0 352-157.867 352-352s-157.867-352-352-352zM480 404.907v213.333c0 17.493 14.507 32 32 32s32-14.507 32-32v-213.333c0-17.493-14.507-32-32-32s-32 14.507-32 32zM554.667 244.907c0-23.467-19.2-42.667-42.667-42.667s-42.667 19.2-42.667 42.667c0 11.093 4.267 21.76 12.373 30.293 8.107 8.107 18.773 12.373 30.293 12.373 23.467 0 42.667-19.2 42.667-42.667z" />
<glyph unicode="&#xe90b;" glyph-name="Warning" d="M501.333 853.334c-229.547 0-416-186.453-416-416s186.453-416 416-416c229.547 0 416 186.453 416 416s-186.453 416-416 416zM469.333 629.334c0 17.493 14.507 32 32 32s32-14.507 32-32v-213.333c0-17.493-14.507-32-32-32s-32 14.507-32 32v213.333zM501.333 213.334c-23.467 0-42.667 19.2-42.667 42.667 0 11.093 4.267 21.76 12.373 30.293 8.107 8.107 18.773 12.373 30.293 12.373 23.467 0 42.667-19.2 42.667-42.667s-19.2-42.667-42.667-42.667z" />
<glyph unicode="&#xe90c;" glyph-name="Star" d="M512 842.568c-36.467 0-69.786-20.657-86.004-53.315l-83.598-166.765-185.238-26.479c-36.452-5.126-66.767-30.641-78.040-65.686-11.273-35.043-1.519-73.448 25.107-98.864l0.035-0.034 133.012-127.467-31.593-181.082c-6.377-36.019 8.268-72.538 37.772-94.174 29.493-21.628 68.709-24.623 101.142-7.731l0.078 0.043 167.322 86.426 167.398-86.507c32.435-16.896 71.659-13.905 101.154 7.727 29.5 21.632 44.147 58.15 37.773 94.17l-0.013 0.055-31.582 181.073 133.069 127.522c26.611 25.417 36.356 63.808 25.088 98.843-11.273 35.044-41.587 60.558-78.037 65.686l-0.051 0.007-185.19 26.473-83.601 166.77c-16.222 32.655-49.536 53.31-86.003 53.31z" />
<glyph unicode="&#xe90d;" glyph-name="Terminal" d="M182.927 799.573c-17.673 0-32-14.327-32-32s14.327-32 32-32h645.766c17.673 0 32 14.327 32 32s-14.327 32-32 32h-645.766zM212.756 670.417c-32.489 0-60.564-22.696-67.372-54.464l-39.537-184.503c-7.547-35.221 13.148-68.787 45.077-79.671v-229.973c0-38.054 30.848-68.902 68.901-68.902h313.658c38.054 0 68.902 30.848 68.902 68.902v226.304h212.757v-263.206c0-17.673 14.323-32 32-32 17.673 0 32 14.327 32 32v266.876c31.927 10.884 52.621 44.45 45.073 79.671l-39.535 184.503c-6.805 31.768-34.88 54.464-67.371 54.464h-604.554zM214.924 121.805v226.304h323.461v-226.304c0-2.709-2.197-4.902-4.902-4.902h-313.658c-2.706 0-4.901 2.193-4.901 4.902zM207.963 602.543c0.484 2.26 2.481 3.874 4.792 3.874h604.554c2.308 0 4.309-1.615 4.791-3.874l39.535-184.503c0.657-3.051-1.668-5.931-4.791-5.931h-683.626c-3.12 0-5.446 2.88-4.792 5.931l39.537 184.503z" />
<glyph unicode="&#xe90e;" glyph-name="Product" d="M53.333 768c0 41.225 33.442 74.667 74.667 74.667h768c41.225 0 74.667-33.442 74.667-74.667v-85.333c0-41.225-33.442-74.667-74.667-74.667h-768c-41.225 0-74.667 33.442-74.667 74.667v85.333zM128 778.667c-5.879 0-10.667-4.788-10.667-10.667v-85.333c0-5.879 4.788-10.667 10.667-10.667h768c5.879 0 10.667 4.788 10.667 10.667v85.333c0 5.879-4.787 10.667-10.667 10.667h-768zM352 469.334c0 17.673 14.327 32 32 32h256c17.673 0 32-14.327 32-32s-14.327-32-32-32h-256c-17.673 0-32 14.327-32 32zM192.271 128v479.995h-64v-479.995c0-64.819 52.513-117.333 117.333-117.333h533.062c64.819 0 117.333 52.514 117.333 117.333v480l-64-0.005v-479.995c0-29.474-23.859-53.333-53.333-53.333h-533.062c-29.474 0-53.333 23.859-53.333 53.333z" />
<glyph unicode="&#xe90f;" glyph-name="Premium" d="M512-85.333c282.769 0 512 229.231 512 512s-229.231 512-512 512c-282.769 0-511.999-229.23-511.999-512s229.23-512 511.999-512zM520.759 129.225c-1.097-5.474-5.111-9.758-10.436-9.758-1.813 1.097-3.456 2.419-4.89 3.93-1.417 1.963-2.381 4.186-2.82 6.515-1.361 6.293-2.628 12.599-3.904 18.918-0.589 2.927-1.178 5.862-1.779 8.794-1.591 8.102-3.166 16.205-4.736 24.311-1.574 8.098-3.145 16.196-4.736 24.294-1.455 7.437-2.944 14.865-4.429 22.298-1.199 5.999-2.398 11.998-3.584 18.001-0.922 4.668-1.818 9.34-2.714 14.007-1.353 7.057-2.709 14.114-4.143 21.158-1.148 5.628-2.364 11.243-3.58 16.862-2.176 10.065-4.352 20.13-6.14 30.255-2.842 17.323-11.955 33.212-25.818 45.009-12.296 10.662-27.678 14.665-43.42 18.206-13.772 3.059-27.506 6.246-41.259 9.455-14.182 3.315-28.371 6.673-42.566 10.074-1.173 0.286-2.344 0.567-3.514 0.849-5.553 1.344-11.060 2.671-16.491 4.339-5.74 1.754-8.203 5.278-8.203 10.057 0.057 4.373 3.334 8.218 8.544 9.988 1.042 0.354 2.103 0.653 3.164 0.917l21.046 5.013c6.542 1.57 13.084 3.145 19.627 4.719 10.66 2.564 21.324 5.129 31.994 7.676 4.799 1.143 9.628 2.206 14.456 3.264 10.19 2.236 20.378 4.476 30.288 7.501 30.216 9.207 46.451 29.888 52.036 58.538 0.614 3.129 1.22 6.259 1.822 9.389 1.382 7.144 2.761 14.286 4.224 21.402 1.395 6.792 2.837 13.574 4.279 20.355 1.865 8.775 3.729 17.548 5.495 26.338 1.289 6.434 2.475 12.887 3.661 19.339 1.126 6.155 2.257 12.309 3.482 18.447 1.745 8.753 3.563 17.496 5.38 26.242 1.574 7.567 3.149 15.136 4.676 22.717 1.152 5.638 2.244 11.292 3.341 16.947 1.173 6.067 2.347 12.134 3.593 18.183 1.271 6.127 4.89 10.057 9.075 10.092s7.991-4.409 9.186-10.464c2.957-15.204 5.982-30.39 9.075-45.559 1.519-7.451 3.063-14.899 4.612-22.348 2.014-9.721 4.032-19.444 5.995-29.178 1.993-10.062 3.951-20.144 5.905-30.225 1.186-6.116 2.372-12.233 3.567-18.344 0.875-4.494 1.737-8.991 2.594-13.488 2.078-10.831 4.151-21.663 6.387-32.46 0.098-0.492 0.201-0.984 0.303-1.477 2.146-10.423 4.305-20.908 10.039-30.397 9.924-16.414 23.62-28.702 43.362-34.014 14.178-3.797 28.518-7.159 42.837-10.522 2.304-0.542 4.604-1.079 6.908-1.621 8.759-2.065 17.536-4.079 26.317-6.093 12.16-2.79 24.32-5.581 36.425-8.499 4.71-1.050 9.195-2.846 13.261-5.312 1.182-0.815 2.146-1.877 2.812-3.102 0.666-1.229 1.020-2.581 1.033-3.955 0.009-1.374-0.32-2.731-0.969-3.964-0.649-1.237-1.596-2.313-2.765-3.145-2.313-1.758-4.988-3.046-7.859-3.789-20.386-5.065-40.823-9.95-61.244-14.822-6.686-1.621-13.393-3.149-20.1-4.672-11.947-2.714-23.885-5.427-35.652-8.695-29.039-8.055-45.218-27.55-52.134-54.374-1.152-4.484-1.941-9.054-2.731-13.619-0.465-2.705-0.93-5.406-1.472-8.090-1.553-7.667-3.136-15.33-4.719-22.993-1.783-8.627-3.567-17.254-5.303-25.877-1.156-5.769-2.249-11.541-3.345-17.314-1.182-6.246-2.364-12.489-3.627-18.718-1.843-9.207-3.742-18.402-5.645-27.593-1.498-7.253-2.999-14.502-4.471-21.756-1.715-8.461-3.388-16.922-5.065-25.378-1.502-7.599-3.004-15.194-4.54-22.784z" />
<glyph unicode="&#xe910;" glyph-name="OfficialBadge" d="M273.084 845.556c41.169 3.287 80.25 19.479 111.68 46.272 35.499 30.234 80.605 46.839 127.232 46.839 46.63 0 91.733-16.605 127.232-46.839 31.428-26.793 70.511-42.985 111.68-46.272 46.494-3.715 90.142-23.869 123.119-56.849 32.981-32.979 53.133-76.627 56.849-123.119 3.264-41.152 19.456-80.256 46.272-111.68 30.234-35.498 46.839-80.602 46.839-127.232s-16.606-91.733-46.839-127.232c-26.79-31.428-42.987-70.511-46.272-111.68-3.716-46.49-23.868-90.138-56.849-123.119-32.977-32.977-76.625-53.133-123.119-56.849-41.169-3.285-80.252-19.477-111.68-46.272-35.499-30.234-80.602-46.839-127.232-46.839-46.626 0-91.733 16.606-127.232 46.839-31.43 26.795-70.511 42.987-111.68 46.272-46.492 3.716-90.14 23.872-123.119 56.849-32.979 32.981-53.133 76.629-56.849 123.119-3.287 41.169-19.479 80.252-46.272 111.68-30.234 35.499-46.839 80.602-46.839 127.232s16.605 91.734 46.839 127.232c26.793 31.43 42.985 70.511 46.272 111.68 3.716 46.492 23.87 90.14 56.849 123.119s76.627 53.134 123.119 56.849v0zM749.244 509.428c11.657 12.071 18.108 28.238 17.963 45.018s-6.874 32.833-18.743 44.699c-11.866 11.866-27.917 18.597-44.698 18.743s-32.947-6.305-45.018-17.963l-210.752-210.752-82.752 82.752c-12.070 11.657-28.237 18.108-45.018 17.963s-32.832-6.874-44.699-18.743c-11.866-11.866-18.597-27.917-18.743-44.698s6.305-32.947 17.963-45.018l128-128c12.002-11.998 28.279-18.739 45.248-18.739 16.973 0 33.246 6.741 45.248 18.739l256 256z" />
<glyph unicode="&#xe911;" glyph-name="NightModeCircle" d="M464.572 625.009c-34.556-9.028-67.577-26.812-95.050-54.285-80.829-80.829-83.466-211.398-3.235-291.577 80.207-80.154 210.72-77.594 291.561 3.251 27.482 27.482 45.261 60.544 54.285 95.040 8.145 31.121-22.912 66.765-58.97 49.826-41.165-19.26-89.037-12.373-120.115 18.701-31.023 31.027-37.926 78.854-18.654 120.078 16.93 36.049-18.705 67.102-49.822 58.966zM414.777 525.469c8.403 8.403 17.56 15.506 27.267 21.362-8.585-51.83 6.080-106.447 45.751-146.119 39.689-39.693 94.327-54.37 146.15-45.798-5.854-9.707-12.954-18.867-21.35-27.264-56.973-56.969-146.961-57.306-201.068-3.234-54.084 54.050-53.734 144.068 3.25 201.053zM806.157 132.51c162.458 162.458 162.458 425.855 0 588.313s-425.853 162.458-588.311 0c-162.458-162.457-162.458-425.856 0-588.313s425.853-162.458 588.311 0zM263.101 675.569c137.465 137.465 360.34 137.465 497.804 0 137.451-137.466 137.459-360.343 0-497.802-137.468-137.463-360.34-137.463-497.804 0-137.465 137.463-137.465 360.338 0 497.802z" />
<glyph unicode="&#xe912;" glyph-name="InvoiceHandSelect" d="M256 778.667c-53.019 0-96-42.981-96-96v-341.333c0-53.018 42.981-96 96-96h85.333c17.673 0 32-14.327 32-32s-14.327-32-32-32h-85.333c-88.366 0-160 71.633-160 160v341.333c0 88.366 71.634 160 160 160h512c88.367 0 160-71.634 160-160v-256c0-17.673-14.327-32-32-32s-32 14.327-32 32v256c0 53.019-42.982 96-96 96h-512zM298.667 672c-17.673 0-32-14.327-32-32s14.327-32 32-32h426.667c17.673 0 32 14.327 32 32s-14.327 32-32 32h-426.667zM298.667 501.334c-17.673 0-32-14.327-32-32s14.327-32 32-32h128c17.673 0 32 14.327 32 32s-14.327 32-32 32h-128zM661.333 501.334c-53.018 0-96-42.982-96-96v-124.493c-11.187 4.681-23.292 7.159-35.652 7.159-24.35 0-47.714-9.617-65.003-26.752l-0.299-0.294c-31.121-31.125-35.951-79.893-11.537-116.518l82.773-124.181c21.76-32.644 58.398-52.254 97.634-52.254h161.967c59.174 0 109.086 44.066 116.425 102.784l15.445 123.601c7.821 62.609-35.273 120.192-97.545 130.351l-72.209 11.772v68.826c0 53.018-42.982 96-96 96zM629.333 405.334c0 17.673 14.327 32 32 32s32-14.327 32-32v-96.030c0-15.684 11.371-29.056 26.85-31.582l99.059-16.154c28.305-4.617 47.893-30.793 44.339-59.251l-15.445-123.597c-3.337-26.688-26.027-46.72-52.919-46.72h-161.967c-17.835 0-34.487 8.913-44.382 23.753l-82.773 124.181c-7.45 11.179-6.029 26.039 3.379 35.597l0.166 0.166c5.316 5.316 12.523 8.303 20.041 8.303s14.729-2.987 20.045-8.303l24.981-24.981c9.148-9.152 22.912-11.891 34.871-6.938s19.755 16.623 19.755 29.564v191.991z" />
<glyph unicode="&#xe913;" glyph-name="DarkMode" d="M683.605 554.24c14.080-14.080 32.427-21.76 52.48-21.76 19.627 0 38.4 7.68 52.48 21.76l64.853 64.853c14.080 14.080 21.76 32.427 21.76 52.48s-7.68 38.4-21.76 52.48l-64.853 64.853c-14.080 14.080-32.427 21.76-52.48 21.76-19.627 0-38.4-7.68-52.053-21.76l-64.853-64.853c-14.080-14.080-21.76-32.427-21.76-52.48s7.68-38.4 21.76-52.48l64.853-64.853h-0.427zM797.952 414.72c-91.307-44.373-201.813-26.453-274.347 43.947-70.827 72.96-88.747 183.467-44.373 274.773 8.96 18.347 6.4 40.533-6.4 56.747-12.8 15.787-33.707 23.467-54.615 18.347-66.56-17.067-127.573-51.627-175.787-99.84-149.76-145.92-153.173-386.987-6.4-537.6 73.813-71.68 169.387-107.52 264.962-107.52 95.573 0 197.547 38.4 271.787 114.347 48.64 48.64 83.2 109.653 100.267 176.64 4.693 20.053-2.56 41.387-18.347 54.187-16.213 12.8-37.973 15.36-56.32 6.4l-0.427-0.427z" />
<glyph unicode="&#xe914;" glyph-name="ChevronUp" horiz-adv-x="1365" d="M616.033 770.041c34.161 42.701 99.106 42.701 133.267 0l505.12-631.4c44.699-55.873 4.919-138.641-66.633-138.641h-1010.241c-71.552 0-111.332 82.768-66.634 138.641l505.121 631.4z" />
<glyph unicode="&#xe915;" glyph-name="ArrowDown" d="M512.422 778.24c17.677 0 32-14.327 32-32v-639.146c0-17.673-14.323-32-32-32-17.673 0-32 14.327-32 32v639.146c0 17.673 14.327 32 32 32zM234.35 384.994c12.496 12.497 32.757 12.497 45.255 0.004l232.391-232.354 232.397 232.354c12.497 12.493 32.759 12.493 45.252-0.004 12.497-12.497 12.497-32.759-0.004-45.257l-255.019-254.976c-12.493-12.493-32.755-12.493-45.248 0l-255.020 254.976c-12.497 12.497-12.499 32.759-0.004 45.257z" />
<glyph unicode="&#xe916;" glyph-name="ArrowUp" d="M512.422 778.238c17.677 0 32-14.327 32-32v-639.571c0-17.677-14.323-32-32-32-17.673 0-32 14.323-32 32v639.571c0 17.673 14.327 32 32 32zM511.996 778.75c8.525 0 16.695-3.4 22.703-9.446l255.019-256.683c12.454-12.538 12.39-32.8-0.145-45.255-12.54-12.454-32.802-12.39-45.257 0.149l-232.32 233.832-232.316-233.832c-12.456-12.54-32.717-12.604-45.254-0.149s-12.603 32.717-0.147 45.255l255.019 256.683c6.007 6.046 14.178 9.446 22.699 9.446z" />
<glyph unicode="&#xe917;" glyph-name="BankIBAN" d="M356.501 589.537c17.673 0 32-14.327 32-32v-344.293c0-17.673-14.327-32-32-32s-32 14.327-32 32v344.293c0 17.673 14.327 32 32 32zM170.525 589.537c17.673 0 32-14.327 32-32v-344.293c0-17.673-14.327-32-32-32s-32 14.327-32 32v344.293c0 17.673 14.327 32 32 32zM99.219 227.554c5.42 10.842 16.501 17.69 28.622 17.69h298.791c17.673 0 32.001-14.327 32.001-32s-14.327-32-32.001-32h-279.014l-30.461-60.924v-3.127h309.475c17.673 0 32.001-14.327 32.001-32 0-17.677-14.327-32-32.001-32h-341.475c-17.673 0-32 14.323-32 32v42.684c0 4.966 1.157 9.865 3.378 14.31l42.685 85.367zM456.516 882.839c8.162 3.562 17.438 3.562 25.6 0l384.162-167.664c11.661-5.090 19.196-16.605 19.196-29.329v-128.309c0-17.673-14.323-32-32-32h-768.318c-17.673 0-32 14.327-32 32v128.309c0 12.724 7.538 24.239 19.2 29.329l384.16 167.664zM117.156 664.898v-75.361h704.318v75.361l-352.158 153.698-352.16-153.698zM589.056 42.671c-11.166 0-19.691 3.716-25.57 11.153s-8.819 17.882-8.819 31.339v299.017c0 13.457 2.94 23.902 8.819 31.339s14.404 11.153 25.57 11.153c10.876 0 19.255-3.716 25.135-11.153 5.875-7.437 8.815-17.882 8.815-31.339v-299.017c0-13.457-2.94-23.902-8.815-31.339-5.585-7.437-13.965-11.153-25.135-11.153zM719.949 42.671c-11.166 0-19.691 3.716-25.57 11.153s-8.819 17.882-8.819 31.339v294.771c0 13.807 2.94 24.252 8.819 31.334 6.174 7.083 14.844 10.624 26.014 10.624h107.14c34.684 0 61.431-10.091 80.243-30.276 18.812-20.181 28.215-48.333 28.215-84.446 0-23.369-4.262-43.554-12.783-60.548-8.525-16.998-20.873-30.097-37.039-39.305-15.872-9.203-35.418-13.807-58.637-13.807l3.524 9.028h18.078c12.343 0 23.074-3.716 32.188-11.153 9.404-7.083 17.489-18.061 24.247-32.93l27.337-61.077c4.113-8.853 6.025-17.527 5.73-26.027s-2.94-15.403-7.936-20.715c-4.996-5.312-12.343-7.966-22.046-7.966-9.698 0-17.634 2.479-23.808 7.437-5.879 4.958-11.17 12.57-15.872 22.835l-42.325 94.012c-4.412 9.911-9.847 16.64-16.316 20.181-6.17 3.541-13.811 5.312-22.925 5.312h-33.51v-107.285c0-13.457-2.94-23.902-8.815-31.339-5.585-7.437-13.965-11.153-25.135-11.153zM753.899 251.934h61.286c18.223 0 31.893 4.425 41.003 13.278 9.408 8.849 14.11 22.127 14.11 39.834 0 17.348-4.702 30.451-14.11 39.3-9.109 8.853-22.78 13.278-41.003 13.278h-61.286v-105.69z" />
<glyph unicode="&#xe918;" glyph-name="BankIn" d="M624.815 546.855c17.673 0 32-14.327 32-32v-344.294c0-17.673-14.327-32-32-32s-32 14.327-32 32v344.294c0 17.673 14.327 32 32 32zM810.79 546.855c17.673 0 32-14.327 32-32v-344.294c0-17.673-14.327-32-32-32s-32 14.327-32 32v344.294c0 17.673 14.327 32 32 32zM522.684 170.56c0 17.673 14.327 32 32 32h298.79c12.122 0 23.202-6.848 28.621-17.69l42.684-85.367c2.223-4.442 3.379-9.344 3.379-14.31v-42.684c0-17.673-14.327-32-32-32h-469.528c-17.673 0-32 14.327-32 32s14.327 32 32 32h437.528v3.132l-30.46 60.919h-279.014c-17.673 0-32 14.327-32 32zM499.2 840.157c8.162 3.562 17.438 3.562 25.6 0l384.158-167.665c11.661-5.090 19.2-16.605 19.2-29.328v-128.309c0-17.673-14.327-32-32-32h-768.319c-17.673 0-32 14.327-32 32v128.309c0 12.724 7.538 24.239 19.2 29.328l384.162 167.665zM159.839 622.215v-75.36h704.319v75.36l-352.158 153.698-352.161-153.698zM95.839 255.932c0 17.673 14.327 32 32 32h298.791c17.671 0 31.999-14.327 31.999-32s-14.327-32-31.999-32h-298.791c-17.673 0-32 14.327-32 32zM275.949 406.609c12.497 12.497 32.758 12.497 45.255 0l128.055-128.051c12.497-12.497 12.497-32.759 0-45.257s-32.759-12.497-45.257 0l-128.053 128.055c-12.497 12.497-12.497 32.759 0 45.252zM449.259 278.558c12.497-12.497 12.497-32.759 0-45.257l-128.055-128.051c-12.497-12.497-32.758-12.497-45.255 0s-12.497 32.759 0 45.252l128.053 128.055c12.497 12.497 32.759 12.497 45.257 0z" />
<glyph unicode="&#xe919;" glyph-name="BankKey" d="M356.565 589.483c17.673 0 32-14.327 32-32v-344.149c0-17.673-14.327-32-32-32s-32 14.327-32 32v344.149c0 17.673 14.327 32 32 32zM170.667 589.483c17.673 0 32-14.327 32-32v-344.149c0-17.673-14.327-32-32-32s-32 14.327-32 32v344.149c0 17.673 14.327 32 32 32zM99.378 227.644c5.42 10.842 16.501 17.69 28.622 17.69h341.333c17.673 0 32-14.327 32-32s-14.327-32-32-32h-321.556l-30.444-60.89v-3.11h309.333c17.673 0 32-14.327 32-32s-14.327-32-32-32h-341.333c-17.673 0-32 14.327-32 32v42.667c0 4.966 1.157 9.869 3.378 14.31l42.667 85.333zM456.533 882.662c8.162 3.562 17.438 3.562 25.6 0l384-167.595c11.661-5.089 19.2-16.605 19.2-29.328v-128.256c0-17.673-14.327-32-32-32h-768c-17.673 0-32 14.327-32 32v128.256c0 12.724 7.538 24.239 19.2 29.328l384 167.595zM117.333 664.79v-75.307h704v75.307l-352 153.629-352-153.629zM755.2 277.334c0 18.85 15.283 34.133 34.133 34.133s34.133-15.283 34.133-34.133c0-18.85-15.283-34.133-34.133-34.133s-34.133 15.283-34.133 34.133zM671.036 252.412c12.51-12.484 12.531-32.747 0.047-45.257l-81.301-81.463c0 0 0 0 0 0-1.993-2.001-3.115-4.71-3.115-7.531 0 0 0-0.004 0 0v-32.828c0-5.892 4.774-10.667 10.667-10.667h32.9c2.833 0 5.551 1.126 7.552 3.132l81.169 81.335c12.484 12.51 32.747 12.531 45.257 0.047s12.527-32.747 0.047-45.257l-81.169-81.335c-14.007-14.033-33.024-21.922-52.851-21.922h-32.905c-41.237 0-74.667 33.429-74.667 74.667v32.828c0 19.772 7.846 38.741 21.815 52.74l81.297 81.463c12.484 12.51 32.747 12.531 45.257 0.047zM672 277.521c0.171-12.651 2.411-25.186 6.635-37.116 5.897-16.657-2.825-34.944-19.482-40.845-16.661-5.901-34.948 2.82-40.849 19.482-6.588 18.607-10.069 38.174-10.3 57.916l-0.009 0.375c0 100.147 81.19 181.333 181.338 181.333s181.333-81.186 181.333-181.333c0-100.147-81.186-181.333-181.333-181.333h-0.375c-19.776 0.23-39.377 3.725-58.018 10.338-16.657 5.909-25.37 24.201-19.46 40.858s24.201 25.37 40.858 19.46c11.947-4.237 24.508-6.485 37.184-6.656 64.717 0.102 117.146 52.595 117.146 117.333 0 64.802-52.531 117.333-117.333 117.333-64.738 0-117.231-52.429-117.333-117.146z" />
<glyph unicode="&#xe91a;" glyph-name="BankMagic" d="M624.815 546.855c17.673 0 32-14.327 32-32v-344.294c0-17.673-14.327-32-32-32s-32 14.327-32 32v344.294c0 17.673 14.327 32 32 32zM810.79 546.855c17.673 0 32-14.327 32-32v-344.294c0-17.673-14.327-32-32-32s-32 14.327-32 32v344.294c0 17.673 14.327 32 32 32zM522.684 170.56c0 17.673 14.327 32 32 32h298.79c12.122 0 23.202-6.848 28.621-17.69l42.688-85.367c2.219-4.442 3.375-9.344 3.375-14.31v-42.684c0-17.673-14.323-32-32-32h-469.527c-17.673 0-32 14.327-32 32s14.327 32 32 32h437.527v3.132l-30.46 60.919h-279.014c-17.673 0-32 14.327-32 32zM499.2 840.157c8.162 3.562 17.438 3.562 25.6 0l384.162-167.665c11.661-5.090 19.196-16.605 19.196-29.328v-128.309c0-17.673-14.323-32-32-32h-768.318c-17.673 0-32 14.327-32 32v128.309c0 12.724 7.538 24.239 19.2 29.328l384.16 167.665zM159.84 622.215v-75.36h704.318v75.36l-352.158 153.698-352.16-153.698zM158.122 220.246c17.673 0 32-14.327 32-32 0-46.093 37.364-83.456 83.455-83.456 17.673 0 32-14.327 32-32s-14.327-32-32-32c-46.091 0-83.455-37.363-83.455-83.456 0-17.673-14.327-32-32-32s-32 14.327-32 32c0 46.093-37.364 83.456-83.456 83.456-17.673 0-32 14.327-32 32s14.327 32 32 32c46.091 0 83.456 37.363 83.456 83.456 0 17.673 14.327 32 32 32zM158.122 96.512c-6.983-8.777-14.946-16.738-23.723-23.723 8.777-6.98 16.74-14.946 23.723-23.723 6.983 8.777 14.946 16.742 23.723 23.723-8.777 6.985-16.74 14.946-23.723 23.723zM341.333 458.667c17.673 0 32-14.327 32-32 0-53.018 42.981-96 96-96 17.673 0 32-14.327 32-32s-14.327-32-32-32c-53.019 0-96-42.978-96-96 0-17.673-14.327-32-32-32s-32 14.327-32 32c0 53.022-42.981 96-96 96-17.673 0-32 14.327-32 32s14.327 32 32 32c53.019 0 96 42.982 96 96 0 17.673 14.327 32 32 32zM341.333 330.654c-9.098-12.113-19.875-22.886-31.984-31.987 12.109-9.097 22.886-19.874 31.984-31.983 9.098 12.109 19.875 22.886 31.984 31.983-12.109 9.101-22.886 19.874-31.984 31.987z" />
<glyph unicode="&#xe91b;" glyph-name="Card" d="M291.839 350.72h113.067c8.487 0 16.626 3.371 22.627 9.37 5.999 6.003 9.374 14.144 9.374 22.63s-3.375 16.623-9.374 22.626c-6.001 6.003-14.141 9.374-22.627 9.374h-113.067c-8.487 0-16.626-3.371-22.627-9.374s-9.373-14.14-9.373-22.626c0-8.486 3.371-16.627 9.373-22.63 6.001-5.999 14.14-9.37 22.627-9.37zM776.102 767.146h-528.212c-43.566 0-85.348-17.306-116.154-48.113s-48.113-72.588-48.113-116.154v-351.999c-0.282-21.751 3.758-43.341 11.887-63.518s20.183-38.537 35.465-54.020c15.281-15.479 33.486-27.767 53.556-36.156s41.606-12.71 63.359-12.706h528.212c43.567 0 85.35 17.306 116.156 48.111s48.111 72.589 48.111 116.156v352.426c0.226 21.715-3.857 43.259-12.011 63.386s-20.215 38.438-35.494 53.873c-15.275 15.435-33.459 27.687-53.504 36.049-20.041 8.361-41.54 12.666-63.258 12.665zM876.369 250.88c0-13.167-2.594-26.206-7.633-38.37s-12.425-23.219-21.734-32.529c-9.31-9.31-20.365-16.695-32.529-21.734s-25.203-7.633-38.37-7.633h-528.212c-26.592 0-52.096 10.564-70.899 29.367s-29.367 44.305-29.367 70.899v276.052h728.746v-276.052zM876.369 592.213h-728.746v10.667c0 26.592 10.564 52.096 29.367 70.899s44.307 29.367 70.899 29.367h528.212c13.167 0 26.206-2.593 38.37-7.632s23.219-12.425 32.529-21.735c9.31-9.311 16.695-20.364 21.734-32.529s7.633-25.203 7.633-38.371v-10.667z" />
<glyph unicode="&#xe91c;" glyph-name="CardFill" d="M82.578 602.839c0 91.223 73.939 165.161 165.161 165.161h528.517c91.221 0 165.163-73.939 165.163-165.161v-11.011h-858.841v11.011zM82.578 525.764v-275.267c0-91.226 73.939-165.163 165.161-165.163h528.517c91.221 0 165.163 73.937 165.163 165.163v275.267h-858.841zM258.752 382.622c0 18.244 14.789 33.033 33.033 33.033h113.19c18.243 0 33.032-14.788 33.032-33.033 0-18.24-14.789-33.033-33.032-33.033h-113.19c-18.243 0-33.033 14.793-33.033 33.033z" />
<glyph unicode="&#xe91d;" glyph-name="ClockArrowDown" d="M455.142 129.464c12.497-12.493 12.497-32.755 0-45.252l-85.369-85.367c-12.497-12.497-32.758-12.497-45.255 0l-85.369 85.367c-12.497 12.497-12.497 32.759 0 45.252 12.497 12.497 32.758 12.497 45.255 0l62.741-62.741 62.741 62.741c12.497 12.497 32.758 12.497 45.255 0zM347.131 309.547c17.673 0 32-14.327 32-32v-256.107c0-17.673-14.327-32-32-32s-32 14.327-32 32v256.107c0 17.673 14.327 32 32 32zM215.296 739.75c124.289 126.498 315.089 160.335 475.299 84.292s254.626-245.258 235.209-421.533c-19.422-176.273-148.416-320.875-321.335-360.218-17.233-3.921-34.381 6.874-38.302 24.107-3.921 17.229 6.869 34.381 24.102 38.302 146.33 33.289 255.484 155.652 271.919 304.819 16.435 149.164-63.467 292.357-199.036 356.705-135.573 64.349-297.029 35.715-402.204-71.329s-130.961-268.979-64.236-403.396c7.858-15.829 1.396-35.034-14.435-42.893-15.83-7.855-35.033-1.395-42.891 14.438-78.852 158.844-48.379 350.208 75.91 476.705zM502.865 609.641c17.673 0 32-14.327 32-32v-132.116l102.643-62.609c15.087-9.203 19.857-28.898 10.654-43.985s-28.894-19.857-43.981-10.654l-117.982 71.966c-9.523 5.811-15.334 16.162-15.334 27.319v150.078c0 17.673 14.327 32 32 32z" />
<glyph unicode="&#xe91e;" glyph-name="Home" d="M413.763 808.962c57.801 44.95 138.71 44.961 196.485-0.009l255.979-199.108c38.997-30.309 61.773-76.938 61.773-126.303v-312.875c0-88.371-71.629-160-160-160h-512c-88.372 0-160 71.629-160 160v312.875c0 49.365 22.763 95.985 61.761 126.293l256.003 199.127zM453.052 758.441l-255.997-199.123c-23.373-18.161-37.055-46.129-37.055-75.776v-312.875c0-53.026 42.974-96 96-96h512c53.026 0 96 42.974 96 96v312.875c0 29.647-13.67 57.605-37.043 75.766l-256.013 199.136c-34.641 26.965-83.191 26.982-117.892-0.002zM352 213.334c0 17.673 14.327 32 32 32h256c17.673 0 32-14.327 32-32s-14.327-32-32-32h-256c-17.673 0-32 14.327-32 32z" />
<glyph unicode="&#xe91f;" glyph-name="HomeFill" d="M866.133 609.707l-256 199.253c-28.070 21.797-62.596 33.628-98.133 33.628s-70.063-11.831-98.133-33.628l-256-199.253c-19.298-14.905-34.913-34.045-45.64-55.942s-16.279-45.967-16.227-70.351v-312.747c0-42.436 16.857-83.132 46.863-113.135 30.006-30.007 70.703-46.865 113.137-46.865h512c42.436 0 83.132 16.858 113.139 46.865 30.003 30.003 46.861 70.699 46.861 113.135v312.747c0.051 24.384-5.5 48.454-16.226 70.351s-26.342 41.038-45.641 55.942zM640 183.040h-256c-8.487 0-16.626 3.371-22.627 9.374-6.001 5.999-9.373 14.14-9.373 22.626s3.372 16.627 9.373 22.626c6.001 6.003 14.141 9.374 22.627 9.374h256c8.486 0 16.627-3.371 22.626-9.374 6.003-5.999 9.374-14.14 9.374-22.626s-3.371-16.627-9.374-22.626c-5.999-6.003-14.14-9.374-22.626-9.374z" />
<glyph unicode="&#xe920;" glyph-name="LaptopCheck" d="M96 128.005c0 17.673 14.327 32 32 32h768c17.673 0 32-14.327 32-32s-14.327-32-32-32h-768c-17.673 0-32 14.327-32 32zM243.2 736.005c-49.597 0-83.2-34.958-83.2-70.4v-341.334c0-16.589 16.41-36.267 44.8-36.267h614.4c28.39 0 44.8 19.678 44.8 36.267v341.334c0 35.442-33.604 70.4-83.2 70.4h-537.6zM96 665.605c0 77.666 69.551 134.4 147.2 134.4h537.6c77.649 0 147.2-56.734 147.2-134.4v-341.334c0-58.816-52.361-100.267-108.8-100.267h-614.4c-56.441 0-108.8 41.451-108.8 100.267v341.334zM641.749 598.167c12.241-12.749 11.827-33.006-0.922-45.245l-133.333-127.999c-12.382-11.887-31.94-11.887-44.322 0l-80 76.8c-12.749 12.239-13.163 32.495-0.923 45.245s32.496 13.163 45.245 0.923l57.839-55.525 111.172 106.725c12.749 12.239 33.007 11.826 45.244-0.923z" />
<glyph unicode="&#xe921;" glyph-name="ListHistory" d="M96 362.505c0 17.677 14.327 32 32 32h213.333c17.673 0 32-14.323 32-32 0-17.673-14.327-32-32-32h-213.333c-17.673 0-32 14.327-32 32zM96 575.84c0 17.673 14.327 32 32 32h213.333c17.673 0 32-14.327 32-32s-14.327-32-32-32h-213.333c-17.673 0-32 14.327-32 32zM96 149.172c0 17.677 14.327 32 32 32h768c17.673 0 32-14.323 32-32 0-17.673-14.327-32-32-32h-768c-17.673 0-32 14.327-32 32zM659.23 520.4c0 17.673 14.327 32 32 32h80.875c17.673 0 32-14.327 32-32 0-17.671-14.327-31.999-32-31.999h-80.875c-17.673 0-32 14.327-32 31.999zM691.226 649.839c17.677 0 32-14.327 32-32v-97.438c0-17.672-14.323-32-31.996-32s-32 14.327-32 31.999l-0.004 97.439c0 17.673 14.327 32 32 32zM704.081 693.334c-88.41 0-160.081-71.67-160.081-160.080 0-88.411 71.671-160.078 160.081-160.078s160.077 71.667 160.077 160.078c0 88.41-71.667 160.080-160.077 160.080zM480 533.254c0 123.756 100.322 224.080 224.081 224.080 123.755 0 224.077-100.324 224.077-224.080s-100.322-224.078-224.077-224.078c-123.759 0-224.081 100.322-224.081 224.078z" />
<glyph unicode="&#xe922;" glyph-name="NeoZarinOutline" d="M899.409 810.667h-328.533c-10.18-0.020-20.122-3.076-28.561-8.776-8.435-5.7-14.98-13.786-18.799-23.224-29.013-71.68-66.56-165.12-104.105-260.693h-317.44c-4.797 0.286-9.59-0.623-13.948-2.647s-8.146-5.097-11.022-8.95c-2.877-3.849-4.752-8.35-5.457-13.103s-0.22-9.609 1.414-14.127l133.12-360.107c2.979-8.73 7.968-16.636 14.564-23.083s14.614-11.255 23.409-14.037h412.158c4.663 0.102 9.276 0.969 13.653 2.56h4.693c7.317 3.051 13.952 7.526 19.516 13.167 5.568 5.641 9.958 12.335 12.911 19.686l239.787 622.933c3.145 7.764 4.331 16.18 3.46 24.51-0.866 8.33-3.763 16.32-8.439 23.269s-10.982 12.646-18.372 16.589c-7.39 3.944-15.633 6.015-24.009 6.032zM339.198 143.36c18.347 46.080 42.667 107.947 69.973 176.213 15.36 38.827 31.571 79.787 48.211 120.747l110.080-298.667-228.265 1.707zM152.318 453.974h241.493c-49.067-123.307-96-240.64-123.733-310.613h-2.987l-114.773 310.613zM650.662 143.36h-14.933l-124.16 335.36c-4.749 13.248-14.148 24.316-26.453 31.147 34.133 85.333 67.84 170.667 94.293 236.8h301.227l-229.973-603.307z" />
<glyph unicode="&#xe923;" glyph-name="PasswordSMS-1" d="M306.667 544.152c-6.643-6.694-11.155-15.205-12.968-24.46-1.813-9.253-0.846-18.84 2.78-27.544 3.626-8.708 9.748-16.145 17.594-21.376s17.066-8.026 26.497-8.026c9.431 0 18.65 2.795 26.497 8.026s13.969 12.668 17.594 21.376c3.626 8.704 4.593 18.291 2.78 27.544-1.813 9.255-6.326 17.766-12.969 24.46-4.44 4.474-9.721 8.025-15.54 10.449s-12.059 3.671-18.362 3.671c-6.303 0-12.544-1.248-18.363-3.671s-11.1-5.975-15.54-10.449zM494.729 544.152c-4.476-4.44-8.026-9.721-10.449-15.54s-3.669-12.059-3.669-18.361c0-6.306 1.246-12.544 3.669-18.364s5.973-11.102 10.449-15.539c8.99-8.994 21.188-14.046 33.903-14.046s24.913 5.052 33.903 14.046c8.99 8.99 14.042 21.184 14.042 33.903 0 12.714-5.052 24.909-14.042 33.901-4.442 4.474-9.724 8.025-15.539 10.449-5.82 2.423-12.062 3.671-18.364 3.671s-12.544-1.248-18.364-3.671c-5.82-2.423-11.098-5.975-15.539-10.449zM881.092 795.758c-29.99 29.96-70.622 46.825-113.011 46.909h-511.737c-42.452 0-83.172-16.835-113.23-46.813s-47.001-70.653-47.114-113.105v-341.159c0-42.453 16.835-83.17 46.813-113.229s70.653-47.002 113.105-47.113h53.306v-138.598c0.035-6.016 1.767-11.9 4.995-16.973 3.228-5.077 7.823-9.139 13.255-11.721 5.433-2.586 11.483-3.584 17.458-2.88 5.975 0.7 11.63 3.072 16.318 6.839l203.844 163.332h202.133c42.453 0.111 83.127 17.054 113.105 47.113s46.814 70.775 46.814 113.229v341.159c0.145 42.268-16.41 82.882-46.054 113.009zM863.607 341.59c-0.094-25.549-10.202-50.044-28.147-68.233-18.031-17.92-42.385-28.028-67.806-28.143h-224.738l-8.529-4.693-161.196-127.932v100.642c0.115 4.25-0.63 8.482-2.191 12.437s-3.906 7.556-6.893 10.581c-2.987 3.029-6.556 5.423-10.491 7.036s-8.156 2.415-12.409 2.355h-85.289c-25.439 0.021-49.828 10.146-67.805 28.143-17.946 18.189-28.051 42.684-28.145 68.233v341.159c0.113 25.373 10.272 49.67 28.254 67.572s42.323 27.953 67.697 27.953h511.736c25.451 0 49.856-10.109 67.849-28.103s28.105-42.4 28.105-67.848v-341.159zM699.426 650.766c-8.448-0.111-16.521-3.516-22.494-9.49s-9.378-14.045-9.489-22.494v-213.222c0-8.482 3.371-16.619 9.365-22.618 5.999-5.999 14.135-9.365 22.618-9.365s16.619 3.366 22.618 9.365c5.995 5.999 9.365 14.135 9.365 22.618v213.222c0 8.483-3.371 16.618-9.365 22.616-5.999 5.998-14.135 9.368-22.618 9.368z" />
<glyph unicode="&#xe924;" glyph-name="PasswordSMS" d="M306.667 544.152c-6.643-6.694-11.155-15.205-12.968-24.46-1.813-9.253-0.846-18.84 2.78-27.544 3.626-8.708 9.748-16.145 17.594-21.376s17.066-8.026 26.497-8.026c9.431 0 18.65 2.795 26.497 8.026s13.969 12.668 17.594 21.376c3.626 8.704 4.593 18.291 2.78 27.544-1.813 9.255-6.326 17.766-12.969 24.46-4.44 4.474-9.721 8.025-15.54 10.449s-12.059 3.671-18.362 3.671c-6.303 0-12.544-1.248-18.363-3.671s-11.1-5.975-15.54-10.449zM494.729 544.152c-4.476-4.44-8.026-9.721-10.449-15.54s-3.669-12.059-3.669-18.361c0-6.306 1.246-12.544 3.669-18.364s5.973-11.102 10.449-15.539c8.99-8.994 21.188-14.046 33.903-14.046s24.913 5.052 33.903 14.046c8.99 8.99 14.042 21.184 14.042 33.903 0 12.714-5.052 24.909-14.042 33.901-4.442 4.474-9.724 8.025-15.539 10.449-5.82 2.423-12.062 3.671-18.364 3.671s-12.544-1.248-18.364-3.671c-5.82-2.423-11.098-5.975-15.539-10.449zM881.092 795.758c-29.99 29.96-70.622 46.825-113.011 46.909h-511.737c-42.452 0-83.172-16.835-113.23-46.813s-47.001-70.653-47.114-113.105v-341.159c0-42.453 16.835-83.17 46.813-113.229s70.653-47.002 113.105-47.113h53.306v-138.598c0.035-6.016 1.767-11.9 4.995-16.973 3.228-5.077 7.823-9.139 13.255-11.721 5.433-2.586 11.483-3.584 17.458-2.88 5.975 0.7 11.63 3.072 16.318 6.839l203.844 163.332h202.133c42.453 0.111 83.127 17.054 113.105 47.113s46.814 70.775 46.814 113.229v341.159c0.145 42.268-16.41 82.882-46.054 113.009zM863.607 341.59c-0.094-25.549-10.202-50.044-28.147-68.233-18.031-17.92-42.385-28.028-67.806-28.143h-224.738l-8.529-4.693-161.196-127.932v100.642c0.115 4.25-0.63 8.482-2.191 12.437s-3.906 7.556-6.893 10.581c-2.987 3.029-6.556 5.423-10.491 7.036s-8.156 2.415-12.409 2.355h-85.289c-25.439 0.021-49.828 10.146-67.805 28.143-17.946 18.189-28.051 42.684-28.145 68.233v341.159c0.113 25.373 10.272 49.67 28.254 67.572s42.323 27.953 67.697 27.953h511.736c25.451 0 49.856-10.109 67.849-28.103s28.105-42.4 28.105-67.848v-341.159zM699.426 650.766c-8.448-0.111-16.521-3.516-22.494-9.49s-9.378-14.045-9.489-22.494v-213.222c0-8.482 3.371-16.619 9.365-22.618 5.999-5.999 14.135-9.365 22.618-9.365s16.619 3.366 22.618 9.365c5.995 5.999 9.365 14.135 9.365 22.618v213.222c0 8.483-3.371 16.618-9.365 22.616-5.999 5.998-14.135 9.368-22.618 9.368z" />
<glyph unicode="&#xe925;" glyph-name="ProfileCard" d="M453.12 432.214c17.916 17.899 30.123 40.704 35.076 65.536 4.949 24.836 2.428 50.58-7.258 73.978s-26.091 43.399-47.142 57.471c-21.053 14.071-45.807 21.583-71.13 21.583s-50.077-7.511-71.13-21.583c-21.053-14.072-37.459-34.072-47.142-57.471s-12.209-49.143-7.257-73.978c4.952-24.832 17.158-47.637 35.075-65.536 24-23.97 56.533-37.431 90.453-37.431s66.453 13.461 90.453 37.431zM317.44 567.896c8.948 8.958 20.351 15.062 32.768 17.538s25.289 1.213 36.989-3.629c11.699-4.841 21.699-13.044 28.735-23.571s10.79-22.903 10.79-35.565c0-12.661-3.755-25.039-10.79-35.565s-17.036-18.731-28.735-23.573c-11.699-4.838-24.572-6.101-36.989-3.627s-23.82 8.58-32.768 17.536c-5.986 5.914-10.738 12.958-13.981 20.719-3.244 7.765-4.914 16.096-4.914 24.51s1.67 16.744 4.914 24.507c3.244 7.764 7.996 14.806 13.981 20.719zM853.333 821.334h-682.667c-31.275-0.448-61.116-13.188-83.073-35.464s-34.264-52.298-34.26-83.576v-554.667c0.448-30.822 13.008-60.228 34.964-81.865s51.544-33.766 82.37-33.762h682.667c31.117 0 60.962 12.361 82.965 34.368 22.007 22.003 34.368 51.849 34.368 82.965v554.667c0 31.119-12.361 60.963-34.368 82.967-22.003 22.004-51.849 34.366-82.965 34.366zM906.667 149.334c0-14.144-5.619-27.712-15.62-37.713s-23.569-15.62-37.713-15.62h-682.667c-14.145 0-27.71 5.619-37.712 15.62s-15.621 23.569-15.621 37.713v554.667c0.444 14.3 6.438 27.865 16.712 37.821s24.021 15.52 38.328 15.513h682.667c13.845-0.443 26.978-6.257 36.612-16.212 9.638-9.955 15.023-23.267 15.014-37.122v-554.667zM810.667 565.334h-170.667c-8.486 0-16.627-3.372-22.626-9.373-6.003-6.001-9.374-14.141-9.374-22.627s3.371-16.626 9.374-22.626c5.999-6.003 14.14-9.374 22.626-9.374h170.667c8.486 0 16.627 3.371 22.626 9.374 6.003 6 9.374 14.139 9.374 22.626s-3.371 16.626-9.374 22.627c-5.999 6.001-14.14 9.373-22.626 9.373zM742.4 394.667h-102.4c-8.486 0-16.627-3.371-22.626-9.374-6.003-5.999-9.374-14.14-9.374-22.626s3.371-16.627 9.374-22.626c5.999-6.003 14.14-9.374 22.626-9.374h102.4c8.486 0 16.627 3.371 22.626 9.374 6.003 5.999 9.374 14.14 9.374 22.626s-3.371 16.627-9.374 22.626c-5.999 6.003-14.14 9.374-22.626 9.374zM503.893 307.2c-30.746 28.838-71.339 44.86-113.493 44.8h-55.467c-42.172 0.145-82.793-15.889-113.493-44.8-18.732-16.61-33.34-37.355-42.667-60.587-2.999-7.979-2.705-16.819 0.815-24.585 3.521-7.761 9.981-13.803 17.958-16.802s16.82-2.705 24.581 0.815c7.761 3.52 13.807 9.98 16.806 17.958 8.001 18.876 21.357 34.999 38.417 46.374 17.061 11.371 37.079 17.502 57.583 17.626h55.467c26.007 0.017 51.037-9.903 69.973-27.733 11.439-10.355 20.343-23.202 26.027-37.547 1.438-4.075 3.686-7.817 6.609-10.995 2.923-3.183 6.455-5.743 10.394-7.518 3.938-1.779 8.192-2.743 12.514-2.833 4.318-0.090 8.61 0.7 12.617 2.313s7.646 4.023 10.697 7.083c3.051 3.059 5.453 6.703 7.057 10.714s2.381 8.307 2.283 12.625c-0.102 4.318-1.075 8.572-2.863 12.506-9.079 23.147-23.39 43.883-41.813 60.587z" />
<glyph unicode="&#xe926;" glyph-name="ProfileCardFill" d="M53.333 702.251c0 65.758 53.324 119.083 119.083 119.083h680.917c64.819 0 117.333-52.514 117.333-117.333v-554.667c0-64.819-52.514-117.333-117.333-117.333h-682.667c-64.82 0-117.333 52.514-117.333 117.333v552.917zM450.159 437.304c48.32 48.324 48.32 126.666 0 174.987s-126.665 48.321-174.985 0c-48.321-48.321-48.321-126.663 0-174.987 48.321-48.32 126.665-48.32 174.985 0zM512 202.663l-0.085 0.265c5.239-0.691 10.726-0.085 15.987 2.010 16.418 6.545 24.422 25.161 17.877 41.574-7.782 19.524-19.136 37.376-33.502 52.659-31.292 34.496-72.222 53.636-114.742 53.636h-69.002c-36.078 0-71.014-13.781-99.887-39.031-2.493-2.052-4.932-4.186-7.315-6.391-18.316-16.947-32.555-37.739-41.777-60.873-6.544-16.414 1.459-35.029 17.876-41.574 5.26-2.095 10.746-2.701 15.989-2.010l-0.086-0.265h298.668zM640 565.331c-17.673 0-32-14.327-32-32s14.327-32.002 32-32.002h170.667c17.673 0 32 14.329 32 32.002s-14.327 32-32 32h-170.667zM640 394.663c-17.673 0-32-14.323-32-32 0-17.673 14.327-32 32-32h102.4c17.673 0 32 14.327 32 32 0 17.677-14.327 32-32 32h-102.4z" />
<glyph unicode="&#xe927;" glyph-name="SettingsFilter" d="M597.333 309.334c-5.879 0-10.667-4.787-10.667-10.667v-170.667c0-5.879 4.787-10.667 10.667-10.667h85.333c5.879 0 10.667 4.787 10.667 10.667v170.667c0 5.879-4.787 10.667-10.667 10.667h-85.333zM522.667 298.667c0 41.225 33.442 74.667 74.667 74.667h85.333c41.225 0 74.667-33.442 74.667-74.667v-170.667c0-41.225-33.442-74.667-74.667-74.667h-85.333c-41.225 0-74.667 33.442-74.667 74.667v170.667zM693.333 213.334c0 17.673 14.327 32 32 32h170.667c17.673 0 32-14.327 32-32s-14.327-32-32-32h-170.667c-17.673 0-32 14.327-32 32zM96 213.334c0 17.673 14.327 32 32 32h426.667c17.673 0 32-14.327 32-32s-14.327-32-32-32h-426.667c-17.673 0-32 14.327-32 32zM341.333 736c-5.879 0-10.667-4.788-10.667-10.667v-170.667c0-5.879 4.788-10.667 10.667-10.667h85.333c5.879 0 10.667 4.788 10.667 10.667v170.667c0 5.879-4.787 10.667-10.667 10.667h-85.333zM266.667 725.334c0 41.225 33.442 74.667 74.667 74.667h85.333c41.225 0 74.667-33.442 74.667-74.667v-170.667c0-41.225-33.442-74.667-74.667-74.667h-85.333c-41.225 0-74.667 33.442-74.667 74.667v170.667zM96 640c0 17.673 14.327 32 32 32h170.667c17.673 0 32-14.327 32-32s-14.327-32-32-32h-170.667c-17.673 0-32 14.327-32 32zM437.333 640c0 17.673 14.327 32 32 32h426.667c17.673 0 32-14.327 32-32s-14.327-32-32-32h-426.667c-17.673 0-32 14.327-32 32z" />
<glyph unicode="&#xe928;" glyph-name="WarningDelete" d="M733.094 700.567c-122.24 98.787-295.142 104.615-423.756 14.282s-181.799-254.957-130.35-403.463c51.45-148.506 195.079-244.945 352.011-236.352s289.173 120.137 324.1 273.374c3.925 17.229 21.077 28.015 38.31 24.090 17.233-3.93 28.015-21.082 24.090-38.315-41.276-181.086-197.551-312.896-383.002-323.051s-355.184 103.808-415.983 279.305 2.052 370.036 154.039 476.785c151.987 106.749 356.314 99.863 500.766-16.877 13.747-11.109 15.885-31.257 4.779-45.002-11.11-13.745-31.258-15.884-45.005-4.775zM918.801 619.93c12.489-12.505 12.476-32.767-0.030-45.255l-128.055-127.882c-12.501-12.489-32.764-12.476-45.252 0.030s-12.476 32.764 0.030 45.252l128.051 127.884c12.506 12.489 32.768 12.475 45.257-0.030zM745.579 620.045c12.506 12.489 32.768 12.475 45.257-0.030l127.881-128.055c12.489-12.506 12.476-32.764-0.030-45.252s-32.768-12.476-45.257 0.030l-127.881 128.052c-12.489 12.505-12.476 32.767 0.030 45.255zM512 612.328c17.673 0 32-14.327 32-32v-139.535c0-17.673-14.327-32-32-32s-32 14.327-32 32v139.535c0 17.673 14.327 32 32 32zM506.313 318.328c1.843 0.329 3.746 0.503 5.687 0.503 21.491 0 38.912-17.425 38.912-38.916s-17.421-38.916-38.912-38.916h-0.585c-20.958 0.384-37.858 17.289-38.242 38.246v0.183c-0.132 10.385 3.904 20.386 11.2 27.772 5.948 6.025 13.662 9.903 21.939 11.127zM512 254.746c0 0 0 0 0 0v0zM512 254.831c0 0 0 0 0 0v0z" />
<glyph unicode="&#xe929;" glyph-name="Acircle" d="M512.004 618.74c-12.365 0.001-23.625-7.124-28.919-18.299l-112.769-238.017c-0.337-0.653-0.653-1.318-0.945-1.997l-27.828-58.735c-7.567-15.97-0.753-35.051 15.217-42.62 15.971-7.565 35.053-0.755 42.62 15.219l19.643 41.459h185.906l19.652-41.498c7.565-15.974 26.645-22.788 42.615-15.223 15.974 7.561 22.793 26.641 15.228 42.615l-141.5 298.791c-5.295 11.177-16.55 18.303-28.919 18.304zM511.996 511.988l62.622-132.237h-125.274l62.652 132.237zM512 842.834c-229.84 0-416.161-186.321-416.161-416.158 0-229.841 186.321-416.162 416.161-416.162 229.837 0 416.158 186.321 416.158 416.162 0 229.837-186.321 416.158-416.158 416.158zM159.839 426.676c0 194.491 157.667 352.158 352.161 352.158 194.492 0 352.158-157.667 352.158-352.158 0-194.496-157.666-352.162-352.158-352.162-194.494 0-352.161 157.666-352.161 352.162z" />
<glyph unicode="&#xe92a;" glyph-name="Add" d="M512 853.334c-235.661 0-426.667-191.006-426.667-426.667s191.006-426.667 426.667-426.667c235.661 0 426.667 191.006 426.667 426.667s-191.006 426.667-426.667 426.667zM512 634.53c18.125 0 32.819-14.694 32.819-32.82v-142.223h142.225c18.125 0 32.819-14.694 32.819-32.819s-14.694-32.819-32.819-32.819h-142.225v-142.225c0-18.125-14.694-32.819-32.819-32.819s-32.819 14.694-32.819 32.819v142.225h-142.223c-18.127 0-32.82 14.694-32.82 32.819s14.694 32.819 32.82 32.819h142.223v142.223c0 18.127 14.694 32.82 32.819 32.82z" />
<glyph unicode="&#xe92b;" glyph-name="AlarmClock" d="M532.523 657.025c0 18.126-14.694 32.82-32.823 32.82-18.125 0-32.819-14.694-32.819-32.82v-276.92c0-11.558 6.080-22.263 16.009-28.186l215.39-128.482c15.565-9.284 35.712-4.194 45.001 11.375 9.284 15.565 4.194 35.716-11.375 45.001l-199.381 118.933v258.279zM813.7 124.967c166.622 166.626 166.622 436.775 0 603.399-166.626 166.624-436.775 166.624-603.399 0s-166.624-436.773 0-603.399c166.623-166.622 436.773-166.622 603.399 0zM256.716 681.951c140.99 140.989 369.579 140.989 510.567 0 140.975-140.991 140.983-369.583 0-510.567-140.988-140.988-369.578-140.988-510.567 0s-140.989 369.578 0 510.567z" />
<glyph unicode="&#xe92c;" glyph-name="AngleDown" d="M318.706 534.628c12.497 12.497 32.758 12.497 45.255 0l148.039-148.038 148.041 148.038c12.497 12.497 32.755 12.497 45.252 0s12.497-32.756 0-45.254l-170.667-170.667c-12.497-12.497-32.755-12.497-45.252 0l-170.668 170.667c-12.497 12.497-12.497 32.757 0 45.254z" />
<glyph unicode="&#xe92d;" glyph-name="AngleLeft" d="M619.959 619.961c12.497-12.497 12.497-32.758 0-45.255l-148.036-148.039 148.036-148.041c12.497-12.497 12.497-32.755 0-45.252s-32.755-12.497-45.252 0l-170.668 170.667c-12.497 12.497-12.497 32.755 0 45.252l170.668 170.668c12.497 12.497 32.755 12.497 45.252 0z" />
<glyph unicode="&#xe92e;" glyph-name="AngleRight" d="M404.039 619.961c12.497 12.497 32.756 12.497 45.254 0l170.667-170.668c12.497-12.497 12.497-32.755 0-45.252l-170.667-170.667c-12.497-12.497-32.757-12.497-45.254 0s-12.497 32.755 0 45.252l148.038 148.041-148.038 148.039c-12.497 12.497-12.497 32.758 0 45.255z" />
<glyph unicode="&#xe92f;" glyph-name="AngleUp" d="M489.374 534.628c12.497 12.497 32.755 12.497 45.252 0l170.667-170.668c12.497-12.497 12.497-32.755 0-45.252s-32.755-12.497-45.252 0l-148.041 148.036-148.039-148.036c-12.497-12.497-32.758-12.497-45.255 0s-12.497 32.755 0 45.252l170.668 170.668z" />
<glyph unicode="&#xe930;" glyph-name="ArchiveIn" d="M634.684 698.5c-1.749 3.936-2.624 8.31-2.624 12.684s0.875 8.748 2.624 12.684c1.754 3.936 3.938 7.436 7.002 10.497l109.781 109.345c12.685 12.684 33.677 12.684 46.362 0s12.685-33.678 0-46.362l-53.359-53.361h139.524c17.933 0 32.802-14.871 32.802-32.803s-14.869-32.804-32.802-32.804h-139.524l53.359-53.361c12.685-12.684 12.685-33.679 0-46.362-6.558-6.561-14.869-9.623-23.181-9.623s-16.619 3.062-23.181 9.623l-109.346 109.345c0 0-0.435 0.875-0.875 1.312-2.624 2.624-4.809 5.686-6.123 9.185h-0.439zM938.227 470.187v-262.43c0-114.594-93.158-207.757-207.753-207.757h-437.385c-114.594 0-207.757 93.163-207.757 207.757v437.82c0 114.594 93.163 207.757 207.757 207.757h218.692c17.933 0 32.802-14.871 32.802-32.804s-14.869-32.803-32.802-32.803h-218.692c-78.292 0-142.15-63.858-142.15-142.15v-317.103h158.77c29.305 0 55.548-16.183 68.232-42.423l19.682-39.369c1.75-3.499 5.686-6.123 9.623-6.123h208.194c4.373 0 7.872 2.189 9.621 6.123l19.682 38.929c13.124 26.244 40.239 44.177 68.672 42.428h158.767v142.148c0 17.933 14.874 32.802 32.806 32.802s32.802-14.869 32.802-32.802h0.435zM872.623 262.43h-158.771c-3.938 0-7.872-2.189-9.621-6.123l-19.682-38.929c-13.124-26.24-39.364-42.423-68.672-42.423h-208.192c-29.305 0-55.548 16.183-68.669 42.423l-19.682 39.364c-1.75 3.499-5.686 6.123-9.623 6.123h-158.77v-54.673c0-78.289 63.858-142.148 142.15-142.148h437.82c78.293 0 142.148 63.859 142.148 142.148v54.673l-0.435-0.435z" />
<glyph unicode="&#xe931;" glyph-name="ArrowLeft" d="M449.847 660.552c12.497 12.497 12.497 32.759-0.004 45.255-12.497 12.496-32.757 12.494-45.253-0.004l-252.466-252.508c-4.874-3.593-8.692-8.538-10.903-14.281-4.854-11.618-2.554-25.519 6.9-34.974l256.469-256.512c12.496-12.497 32.756-12.501 45.253-0.004 12.501 12.497 12.501 32.755 0.004 45.252l-202.707 202.743h563.526c17.673 0 32 14.327 32 32s-14.327 32-32 32h-561.815l200.996 201.032z" />
<glyph unicode="&#xe932;" glyph-name="ArrowRight" d="M597.858 705.852c-12.523 12.471-32.785 12.429-45.257-0.094s-12.429-32.784 0.094-45.255l201.818-200.983h-563.367c-17.673 0-32-14.327-32-32s14.327-32 32-32h565.087l-203.537-202.692c-12.523-12.471-12.565-32.734-0.094-45.257s32.734-12.565 45.257-0.094l257.579 256.512c6.029 6.007 9.417 14.165 9.417 22.677 0 8.508-3.388 16.67-9.417 22.673l-257.579 256.512z" />
<glyph unicode="&#xe933;" glyph-name="ArrowsFirst" d="M746.667 608c0 17.673-14.327 32-32 32s-32-14.327-32-32v-362.667c0-17.673 14.327-32 32-32s32 14.327 32 32v362.667zM406.627 619.961c-12.497 12.497-32.758 12.497-45.255 0s-12.497-32.758 0-45.255l148.038-148.039-148.038-148.041c-12.497-12.497-12.497-32.755 0-45.252s32.758-12.497 45.255 0l170.665 170.667c6.003 5.999 9.374 14.14 9.374 22.626s-3.371 16.627-9.374 22.626l-170.665 170.668z" />
<glyph unicode="&#xe934;" glyph-name="ArrowsLast" d="M320 245.334c0-17.673 14.327-32 32-32s32 14.327 32 32v362.667c0 17.673-14.327 32-32 32s-32-14.327-32-32v-362.667zM705.293 574.706c12.497 12.497 12.497 32.758 0 45.255s-32.755 12.497-45.252 0l-170.667-170.668c-12.497-12.497-12.497-32.755 0-45.252l170.667-170.667c12.497-12.497 32.755-12.497 45.252 0s12.497 32.755 0 45.252l-148.036 148.041 148.036 148.039z" />
<glyph unicode="&#xe935;" glyph-name="ArrowTopLeft" d="M599.236 671.999c17.673 0.125 32.102-14.101 32.226-31.773s-14.101-32.1-31.774-32.225l-220.084-1.552 368.355-368.356c12.497-12.497 12.497-32.759 0-45.252-12.497-12.497-32.755-12.497-45.252 0l-368.328 368.325-1.583-220.063c-0.127-17.673-14.557-31.898-32.23-31.77s-31.896 14.558-31.769 32.23l2.133 296.576c0.126 17.495 14.278 31.646 31.773 31.769l296.532 2.091z" />
<glyph unicode="&#xe936;" glyph-name="AssetLibrary" d="M96 725.334c0 64.82 52.514 117.333 117.333 117.333h128c64.82 0 117.333-52.514 117.333-117.333v-128c0-64.82-52.514-117.333-117.333-117.333h-128c-64.82 0-117.333 52.514-117.333 117.333v128zM213.333 778.667c-29.474 0-53.333-23.86-53.333-53.333v-128c0-29.474 23.86-53.333 53.333-53.333h128c29.474 0 53.333 23.86 53.333 53.333v128c0 29.474-23.86 53.333-53.333 53.333h-128zM565.333 725.334c0 64.82 52.514 117.333 117.333 117.333h128c64.819 0 117.333-52.514 117.333-117.333v-128c0-64.82-52.514-117.333-117.333-117.333h-128c-64.819 0-117.333 52.514-117.333 117.333v128zM682.667 778.667c-29.474 0-53.333-23.86-53.333-53.333v-128c0-29.474 23.859-53.333 53.333-53.333h128c29.474 0 53.333 23.86 53.333 53.333v128c0 29.474-23.859 53.333-53.333 53.333h-128zM213.333 373.334c-64.82 0-117.333-52.514-117.333-117.333v-128c0-64.819 52.514-117.333 117.333-117.333h128c64.82 0 117.333 52.514 117.333 117.333v128c0 64.819-52.514 117.333-117.333 117.333h-128zM160 256c0 29.474 23.86 53.333 53.333 53.333h128c29.474 0 53.333-23.859 53.333-53.333v-128c0-29.474-23.86-53.333-53.333-53.333h-128c-29.474 0-53.333 23.859-53.333 53.333v128zM608 275.2c0 17.673 14.327 32 32 32h213.333c17.673 0 32-14.327 32-32 0-17.677-14.327-32-32-32h-213.333c-17.673 0-32 14.323-32 32zM640 140.8c-17.673 0-32-14.323-32-32 0-17.673 14.327-32 32-32h213.333c17.673 0 32 14.327 32 32 0 17.677-14.327 32-32 32h-213.333z" />
<glyph unicode="&#xe937;" glyph-name="AtSign" d="M159.839 469.355c0 170.917 138.557 309.473 309.473 309.473h85.372c82.078 0 160.794-32.605 218.833-90.643 58.035-58.038 90.641-136.754 90.641-218.83v-106.714c0-53.047-43.004-96.051-96.051-96.051h-4.271c-52.77 0-95.599 42.551-96.047 95.215v160.9c0 70.715-57.327 128.040-128.043 128.040h-63.471c-33.877 0.005-66.376-13.421-90.371-37.335l-12.844-12.844c-12.497-12.497-12.497-32.758 0-45.255s32.758-12.497 45.255 0l12.768 12.767c11.994 11.946 28.262 18.671 45.193 18.667h63.471c35.371 0 64.043-28.672 64.043-64.040v-54.481h-136.107c-73.335-0.030-132.776-59.499-132.807-132.834 0.031-73.331 59.486-132.774 132.82-132.804h72.051c43.055 0 81.148 21.252 104.358 53.837 29.321-33.024 72.098-53.833 119.731-53.833h4.271c88.393 0 160.051 71.659 160.051 160.051v106.714c0 99.050-39.347 194.045-109.389 264.085-70.037 70.040-165.035 109.388-264.085 109.388h-85.372c-206.263 0-373.473-167.211-373.473-373.473v-85.372c0-206.263 167.211-373.474 373.473-373.474h166.473c17.673 0 32 14.327 32 32s-14.327 32-32 32h-166.473c-170.917 0-309.473 138.556-309.473 309.474v85.372zM603.785 404.224v-41.583c0-0.363 0-0.721 0.004-1.084v-30.933c0-35.366-28.672-64.038-64.043-64.038h-72.051c-37.999 0.021-68.797 30.822-68.82 68.821 0.023 37.999 30.834 68.796 68.833 68.817h136.077z" />
<glyph unicode="&#xe938;" glyph-name="AttachLink" d="M499.473 734.154c88.683 86.499 230.434 85.615 318.029-1.982 87.599-87.598 88.482-229.345 1.984-318.028l-0.277-0.286-93.525-93.521c-12.497-12.497-32.755-12.497-45.252 0s-12.497 32.759 0 45.257l93.372 93.372c61.901 63.611 61.227 165.172-1.553 227.951s-164.339 63.456-227.951 1.555l-93.376-93.375c-12.497-12.497-32.756-12.497-45.253 0s-12.497 32.758 0 45.255l93.804 93.802zM648.469 563.133c12.497-12.497 12.497-32.758 0-45.255l-227.68-227.68c-12.497-12.497-32.758-12.497-45.255 0s-12.497 32.759 0 45.257l227.679 227.679c12.497 12.497 32.759 12.497 45.257 0zM343.57 487.744c12.497 12.497 12.497 32.756 0 45.253s-32.758 12.497-45.255 0l-93.802-93.804c-86.499-88.683-85.615-230.434 1.982-318.029 87.598-87.599 229.349-88.486 318.032-1.984l93.803 93.803c12.497 12.497 12.497 32.755 0 45.252s-32.759 12.497-45.257 0l-93.372-93.372c-63.611-61.901-165.172-61.227-227.951 1.553s-63.456 164.339-1.555 227.951l93.375 93.376z" />
<glyph unicode="&#xe939;" glyph-name="AttachmentLink" d="M469.316 757.032c-123.756 0-224.081-100.324-224.081-224.080s100.324-224.079 224.081-224.079h119.518c17.673 0 32 14.327 32 32s-14.327 32-32 32h-119.518c-88.41 0-160.081 71.667-160.081 160.079 0 88.41 71.67 160.080 160.081 160.080h234.765c88.405 0 160.077-71.666 160.081-160.073-0.051-34.147-11.251-67.342-31.902-94.537-10.688-14.076-7.945-34.15 6.131-44.838s34.15-7.94 44.838 6.135c29.094 38.31 44.873 85.086 44.932 133.194 0 123.756-100.326 224.119-224.081 224.119h-234.765zM435.166 543.61c-17.671 0-31.998-14.327-31.998-32.002 0-17.673 14.327-32 31.998-32h119.518c88.41 0 160.081-71.667 160.081-160.077s-71.671-160.081-160.081-160.081h-234.764c-88.403 0-160.069 71.659-160.080 160.060 0.045 34.15 11.247 67.354 31.901 94.549 10.688 14.076 7.943 34.15-6.132 44.838s-34.149 7.94-44.838-6.131c-29.095-38.315-44.873-85.090-44.931-133.197 0-123.759 100.324-224.119 224.080-224.119h234.764c123.755 0 224.081 100.322 224.081 224.081 0 123.755-100.326 224.079-224.081 224.079h-119.518z" />
<glyph unicode="&#xe93a;" glyph-name="BankClock" d="M266.667 426.667c-123.733 0-224-100.693-224-224s100.693-224 224-224c123.307 0 224 100.693 224 224s-100.693 224-224 224zM266.667 42.667c-88.32 0-160 71.68-160 160s71.68 160 160 160c88.32 0 160-71.68 160-160s-71.68-160-160-160zM348.587 139.947c-5.973-9.813-16.64-15.36-27.307-15.36-5.547 0-11.52 1.707-16.64 4.693l-58.88 35.84c-9.387 5.973-15.36 16.213-15.36 27.307v75.093c0 17.493 14.507 32 32 32s32-14.507 32-32v-57.173l43.52-26.453c14.933-9.387 20.053-29.013 10.667-43.947zM928.427 493.654c17.493 0 32 14.507 32 32v128.427c0 12.8-7.68 24.32-19.2 29.44l-384.427 167.253c-8.107 3.413-17.493 3.413-25.6 0l-384-167.68c-11.52-5.12-19.2-16.64-19.2-29.44v-128.427c0-17.493 14.507-32 32-32h465.067v-280.32h-37.973c-17.493 0-32-14.507-32-32s14.507-32 32-32h279.040l30.293-61.013v-2.987h-309.333c-17.493 0-32-14.507-32-32s14.507-32 32-32h341.333c17.493 0 32 14.507 32 32v42.667c0 5.12-1.28 9.813-3.413 14.507l-42.667 85.333c-5.547 10.667-16.64 17.493-28.587 17.493h-10.667v280.32h53.333v0.427zM192 632.747l352 153.6 352-153.6v-75.52h-704v75.52zM811.093 213.334h-122.027v280.32h122.027v-280.32z" />
<glyph unicode="&#xe93b;" glyph-name="BankFast" d="M928.427 535.894c17.493 0 32 14.507 32 32v128.427c0 12.8-7.68 24.32-19.2 29.44l-384.427 167.68c-8.107 3.413-17.493 3.413-25.6 0l-384-167.68c-11.52-5.12-19.2-16.64-19.2-29.44v-128.427c0-17.493 14.507-32 32-32h464.64v-280.32h-37.973c-17.493 0-32-14.507-32-32s14.507-32 32-32h279.040l30.293-61.013v-2.987h-309.333c-17.493 0-32-14.507-32-32s14.507-32 32-32h341.333c17.493 0 32 14.507 32 32v42.667c0 5.12-1.28 9.813-3.413 14.507l-42.667 85.333c-5.547 10.667-16.64 17.493-28.587 17.493h-10.667v280.32h53.76zM192 675.414l352 153.6 352-153.6v-75.52h-704v75.52zM811.093 256h-122.027v280.32h122.027v-280.32zM437.333 307.627h-108.373v111.36c-0.853 23.040-17.067 42.667-40.107 48.64-21.333 5.547-45.227-2.133-58.453-19.2l-177.493-226.56c-12.8-16.64-13.653-38.827-2.56-56.32 9.813-15.787 26.027-25.173 46.933-25.173h107.093v-111.36c0.853-23.040 17.067-42.667 40.107-48.64 4.693-1.28 9.387-1.707 14.507-1.707 17.067 0 33.707 7.68 44.373 20.907l177.067 226.56c12.8 16.64 14.080 38.827 2.987 56.747-9.813 15.36-27.307 25.173-46.080 25.173v-0.427zM268.8 58.88v113.493c0 17.493-14.507 32-32 32h-116.053l144.213 184.747v-113.493c0-17.493 14.507-32 32-32h116.053l-144.213-184.747z" />
<glyph unicode="&#xe93c;" glyph-name="BankSignalSquare" d="M672.427 387.414c17.493 0 32 14.507 32 32v75.947c0 12.8-7.68 24.747-20.053 29.44l-170.667 69.973c-7.68 2.987-16.64 2.987-24.32 0l-170.667-69.973c-11.947-5.12-20.053-16.64-20.053-29.44v-75.947c0-17.493 14.507-32 32-32h10.667v-131.413h-10.667c-17.493 0-32-14.507-32-32s14.507-32 32-32h341.76c17.493 0 32 14.507 32 32s-14.507 32-32 32h-10.667v131.413h10.667zM363.093 474.027l138.667 56.747 138.667-56.747v-22.613h-277.76v22.613h0.427zM405.76 387.414h64v-131.413h-64v131.413zM597.76 256h-64v131.413h64v-131.413zM917.76 394.667v-213.333c0-111.787-90.88-202.667-202.667-202.667h-384.427c-135.253 0-245.333 110.080-245.333 245.333v384c0 111.787 90.88 202.667 202.667 202.667h213.333c17.493 0 32-14.507 32-32s-14.507-32-32-32h-213.333c-76.373 0-138.667-62.293-138.667-138.667v-384.427c0-99.84 81.493-181.333 181.333-181.333h384.427c76.373 0 138.667 62.293 138.667 138.667v213.333c0 17.493 14.507 32 32 32s32-14.507 32-32v0.427zM960.427 586.667c0-17.493-14.507-32-32-32s-32 14.507-32 32c0 111.787-90.88 202.667-202.667 202.667-17.493 0-32 14.507-32 32s14.507 32 32 32c147.2 0 266.667-119.467 266.667-266.667zM693.76 661.334c-17.493 0-32 14.507-32 32s14.507 32 32 32c76.373 0 138.667-62.293 138.667-138.667 0-17.493-14.507-32-32-32s-32 14.507-32 32c0 41.387-33.707 74.667-74.667 74.667z" />
<glyph unicode="&#xe93d;" glyph-name="Bill" d="M533.333 650.667c0-17.493-14.507-32-32-32h-170.667c-17.493 0-32 14.507-32 32s14.507 32 32 32h170.667c17.493 0 32-14.507 32-32zM501.333 512h-170.667c-17.493 0-32-14.507-32-32s14.507-32 32-32h170.667c17.493 0 32 14.507 32 32s-14.507 32-32 32zM501.333 341.334h-170.667c-17.493 0-32-14.507-32-32s14.507-32 32-32h170.667c17.493 0 32 14.507 32 32s-14.507 32-32 32zM874.667 778.667v-690.773c0-18.773-9.387-35.413-25.173-45.227s-35.413-10.667-52.053-2.56l-120.747 60.587c-2.987 1.707-6.4 1.707-9.387 0l-142.080-71.253c-7.253-3.84-15.787-5.547-23.893-5.547s-16.64 1.707-23.893 5.547l-142.080 70.827c-2.987 1.707-6.4 1.707-9.387 0l-120.747-60.587c-16.64-8.533-36.267-7.253-52.053 2.133-15.787 9.813-25.173 26.88-25.173 45.227v691.627c0 40.96 33.707 74.667 74.667 74.667h597.333c40.96 0 74.667-33.707 74.667-74.667zM810.667 778.667c0 5.973-4.693 10.667-10.667 10.667h-597.333c-5.973 0-10.667-4.693-10.667-10.667v-673.707l105.387 52.48c10.667 5.12 21.76 7.68 33.28 7.68s23.040-2.56 33.28-7.68l137.387-68.693 137.387 68.693c20.907 10.24 45.653 10.24 66.987 0l105.387-52.48v673.707h-0.427zM672 683.094c-17.493 0-32-14.507-32-32s14.507-32 32-32c17.493 0 32 14.507 32 32s-14.507 32-32 32zM672 512.427c-17.493 0-32-14.507-32-32s14.507-32 32-32c17.493 0 32 14.507 32 32s-14.507 32-32 32zM672 341.76c-17.493 0-32-14.507-32-32s14.507-32 32-32c17.493 0 32 14.507 32 32s-14.507 32-32 32z" />
<glyph unicode="&#xe93e;" glyph-name="BillScan" d="M320 330.667c0 17.673-14.327 32-32 32s-32-14.327-32-32v-32c0-25.459 10.114-49.877 28.118-67.883 18.004-18.001 42.421-28.117 67.882-28.117h32c17.673 0 32 14.327 32 32s-14.327 32-32 32h-32c-8.487 0-16.626 3.371-22.627 9.374-6.001 5.999-9.373 14.14-9.373 22.626v32zM736 362.667c17.673 0 32-14.327 32-32v-32c0-25.459-10.116-49.877-28.117-67.883-18.005-18.001-42.423-28.117-67.883-28.117h-32c-17.673 0-32 14.327-32 32s14.327 32 32 32h32c8.486 0 16.627 3.371 22.626 9.374 6.003 5.999 9.374 14.14 9.374 22.626v32c0 17.673 14.327 32 32 32zM640 714.667c-17.673 0-32-14.327-32-32s14.327-32 32-32h32c8.486 0 16.627-3.372 22.626-9.373 6.003-6.001 9.374-14.141 9.374-22.627v-32c0-17.673 14.327-32 32-32s32 14.327 32 32v32c0 25.461-10.116 49.879-28.117 67.882-18.005 18.004-42.423 28.118-67.883 28.118h-32zM352 650.667c-8.487 0-16.626-3.372-22.627-9.373s-9.373-14.141-9.373-22.627v-32c0-17.673-14.327-32-32-32s-32 14.327-32 32v32c0 25.461 10.114 49.879 28.118 67.882s42.421 28.118 67.882 28.118h32c17.673 0 32-14.327 32-32s-14.327-32-32-32h-32zM288 490.667c-17.673 0-32-14.327-32-32s14.327-32 32-32h448c17.673 0 32 14.327 32 32s-14.327 32-32 32h-448zM256 885.334c-41.885 0-82.384-15.733-112.507-44.246-30.184-28.57-47.493-67.706-47.493-108.911v-661.174c-0.004-14.43 3.895-28.523 11.191-40.917 7.29-12.386 17.681-22.596 30.024-29.82 12.334-7.219 26.286-11.264 40.537-11.874 14.251-0.606 28.497 2.24 41.407 8.35l97.704 46.255c5.821 2.756 12.383 4.117 19.052 3.874s13.071-2.074 18.603-5.214l105.762-60.066c15.735-8.934 33.609-13.589 51.721-13.589s35.989 4.655 51.725 13.594l105.758 60.079c5.534 3.14 11.934 4.975 18.603 5.214 6.669 0.243 13.231-1.118 19.051-3.874l97.711-46.259c12.907-6.106 27.145-8.951 41.395-8.346 14.246 0.61 28.198 4.655 40.529 11.87 12.343 7.219 22.733 17.425 30.025 29.803 7.3 12.395 11.204 26.487 11.204 40.917v661.178c0 41.205-17.31 80.341-47.492 108.911-30.123 28.513-70.622 44.246-112.508 44.246h-512zM187.488 794.607c17.885 16.93 42.501 26.726 68.512 26.726h512c26.010 0 50.628-9.797 68.51-26.726 17.826-16.873 27.49-39.37 27.49-62.431v-661.178c0-2.846-0.764-5.743-2.347-8.435-1.596-2.705-4.015-5.184-7.198-7.044-3.191-1.869-6.959-2.995-10.94-3.166s-7.881 0.636-11.294 2.249l-97.707 46.263c-15.189 7.189-31.949 10.594-48.755 9.98-16.806-0.61-33.276-5.222-47.885-13.521l-105.758-60.079c-5.965-3.388-12.924-5.244-20.117-5.244s-14.157 1.856-20.117 5.244l-105.759 60.062c-14.612 8.299-31.078 12.911-47.884 13.521-16.805 0.614-33.569-2.795-48.759-9.984l-97.708-46.259c-3.414-1.617-7.311-2.419-11.291-2.249s-7.75 1.301-10.94 3.166c-3.181 1.86-5.602 4.343-7.196 7.049-1.585 2.692-2.346 5.602-2.345 8.448v661.178c0 23.061 9.662 45.558 27.488 62.431z" />
<glyph unicode="&#xe93f;" glyph-name="Bot" d="M766.72 810.667h-530.773c-59.733 0-107.947-48.213-107.947-107.947v-455.253c0-59.733 48.213-107.947 107.947-107.947h456.533l135.253-72.107c9.813-5.12 21.76-5.12 31.573 0.853s15.36 16.213 15.36 27.307v607.147c0 59.733-48.213 107.947-107.947 107.947zM554.667 608c0 17.493 14.507 32 32 32s32-14.507 32-32v-42.667c0-17.493-14.507-32-32-32s-32 14.507-32 32v42.667zM384 608c0 17.493 14.507 32 32 32s32-14.507 32-32v-42.667c0-17.493-14.507-32-32-32s-32 14.507-32 32v42.667zM689.493 372.054c-105.387-105.387-276.053-105.387-381.44 0-12.373 12.373-12.373 32.853 0 45.227s32.853 12.373 45.227 0c80.213-80.213 210.773-80.213 290.987 0 12.373 12.373 32.853 12.373 45.227 0s12.373-32.853 0-45.227z" />
<glyph unicode="&#xe940;" glyph-name="Box" d="M53.333 768c0 41.225 33.442 74.667 74.667 74.667h768c41.225 0 74.667-33.442 74.667-74.667v-85.333c0-41.225-33.442-74.667-74.667-74.667h-768c-41.225 0-74.667 33.442-74.667 74.667v85.333zM128 778.667c-5.879 0-10.667-4.788-10.667-10.667v-85.333c0-5.879 4.788-10.667 10.667-10.667h768c5.879 0 10.667 4.788 10.667 10.667v85.333c0 5.879-4.787 10.667-10.667 10.667h-768zM352 469.334c0 17.673 14.327 32 32 32h256c17.673 0 32-14.327 32-32s-14.327-32-32-32h-256c-17.673 0-32 14.327-32 32zM192.271 128v479.995h-64v-479.995c0-64.819 52.513-117.333 117.333-117.333h533.062c64.819 0 117.333 52.514 117.333 117.333v480l-64-0.005v-479.995c0-29.474-23.859-53.333-53.333-53.333h-533.062c-29.474 0-53.333 23.859-53.333 53.333z" />
<glyph unicode="&#xe941;" glyph-name="BuildingCityDownTown" d="M261.245 597.41c0 20.62 16.716 37.335 37.336 37.335s37.335-16.716 37.335-37.335c0-20.62-16.716-37.335-37.335-37.335s-37.336 16.716-37.336 37.335zM469.316 634.745c-20.621 0-37.338-16.716-37.338-37.335s16.717-37.335 37.338-37.335c20.617 0 37.333 16.716 37.333 37.335s-16.717 37.335-37.333 37.335zM261.245 426.671c0 20.617 16.716 37.333 37.336 37.333s37.335-16.717 37.335-37.333c0-20.621-16.716-37.338-37.335-37.338s-37.336 16.717-37.336 37.338zM469.316 464.005c-20.621 0-37.338-16.717-37.338-37.333 0-20.621 16.717-37.338 37.338-37.338 20.617 0 37.333 16.717 37.333 37.338 0 20.617-16.717 37.333-37.333 37.333zM261.245 255.936c0 20.621 16.716 37.333 37.336 37.333s37.335-16.713 37.335-37.333c0-20.621-16.716-37.338-37.335-37.338s-37.336 16.717-37.336 37.338zM469.316 293.27c-20.621 0-37.338-16.713-37.338-37.333s16.717-37.338 37.338-37.338c20.617 0 37.333 16.717 37.333 37.338s-16.717 37.333-37.333 37.333zM730.769 426.671c0 20.617 16.717 37.333 37.338 37.333s37.333-16.717 37.333-37.333c0-20.621-16.713-37.338-37.333-37.338s-37.338 16.717-37.338 37.338zM768.107 293.27c-20.621 0-37.338-16.713-37.338-37.333s16.717-37.338 37.338-37.338c20.621 0 37.333 16.717 37.333 37.338s-16.713 37.333-37.333 37.333zM170.523 800.146c-41.247 0-74.684-33.437-74.684-74.685v-597.581c0-41.25 33.437-74.684 74.684-74.684h682.951c41.246 0 74.684 33.438 74.684 74.684v426.846c0 41.247-33.438 74.685-74.684 74.685h-181.423v96.050c0 41.247-33.438 74.685-74.684 74.685h-426.845zM159.839 725.462c0 5.901 4.783 10.685 10.684 10.685h426.845c5.901 0 10.684-4.784 10.684-10.685v-608.265h-437.528c-5.901 0-10.684 4.783-10.684 10.684v597.581zM853.474 117.197h-181.423v448.215h181.423c5.901 0 10.684-4.783 10.684-10.685v-426.846c0-5.901-4.783-10.684-10.684-10.684z" />
<glyph unicode="&#xe942;" glyph-name="BulletList" d="M149.333 714.667c-17.673 0-32-14.327-32-32s14.327-32 32-32h512c17.673 0 32 14.327 32 32s-14.327 32-32 32h-512zM832 714.667c-17.673 0-32-14.327-32-32s14.327-32 32-32h42.667c17.673 0 32 14.327 32 32s-14.327 32-32 32h-42.667zM800 426.667c0 17.673 14.327 32 32 32h42.667c17.673 0 32-14.327 32-32s-14.327-32-32-32h-42.667c-17.673 0-32 14.327-32 32zM832 202.667c-17.673 0-32-14.327-32-32s14.327-32 32-32h42.667c17.673 0 32 14.327 32 32s-14.327 32-32 32h-42.667zM117.333 426.667c0 17.673 14.327 32 32 32h512c17.673 0 32-14.327 32-32s-14.327-32-32-32h-512c-17.673 0-32 14.327-32 32zM149.333 202.667c-17.673 0-32-14.327-32-32s14.327-32 32-32h512c17.673 0 32 14.327 32 32s-14.327 32-32 32h-512z" />
<glyph unicode="&#xe943;" glyph-name="Calendar" d="M351.922 810.828v-32.026h320.155v32.026c0 17.673 14.327 32 32 32s32-14.327 32-32v-32.026h32.081c88.367 0 160-71.634 160-160v-448.293c0-88.367-71.633-160-160-160h-512.32c-88.365 0-160 71.633-160 160v448.293c0 88.366 71.634 160 160 160h32.083v32.026c0 17.673 14.327 32 32 32s32-14.327 32-32zM287.922 714.802h-32.083c-53.019 0-96-42.981-96-96v-53.422h704.319v53.422c0 53.019-42.978 96-96 96h-32.081v-32.027c0-17.673-14.327-32-32-32s-32 14.327-32 32v32.027h-320.155v-32.027c0-17.673-14.327-32-32-32s-32 14.327-32 32v32.027zM159.839 501.381v-330.871c0-53.018 42.98-96 96-96h512.32c53.022 0 96 42.982 96 96v330.871h-704.319z" />
<glyph unicode="&#xe944;" glyph-name="CalendarClock" d="M917.76 332.8v360.533c0 88.32-71.68 160-160 160h-512.427c-88.32 0-160-71.68-160-160v-512.427c0-88.32 71.68-160 160-160h360.533c36.693-26.453 81.493-42.667 130.56-42.667 123.733 0 224 100.693 224 224 0 48.64-16.213 93.867-42.667 130.56zM245.333 789.334h512.427c52.907 0 96-43.093 96-96v-53.333h-704.427v53.333c0 52.907 43.093 96 96 96zM149.333 180.907v395.093h704.427v-183.467c-34.133 21.333-74.24 34.133-117.333 34.133-123.733 0-224-100.693-224-224 0-43.093 12.8-83.2 34.133-117.333h-301.227c-52.907 0-96 43.093-96 96v-0.427zM736.427 42.24c-88.32 0-160 71.68-160 160s71.68 160 160 160c88.32 0 160-71.68 160-160s-71.68-160-160-160zM818.347 139.52c-5.973-9.813-16.64-15.36-27.307-15.36-5.547 0-11.52 1.707-16.64 4.693l-58.88 35.84c-9.387 5.973-15.36 16.213-15.36 27.307v75.093c0 17.493 14.507 32 32 32s32-14.507 32-32v-57.173l43.52-26.453c14.933-9.387 20.053-29.013 10.667-43.947zM542.293 458.667c0 17.493 16.213 34.133 34.133 34.133s34.133-16.64 34.133-34.133c0-17.493-16.213-34.133-34.133-34.133s-34.133 16.213-34.133 34.133zM392.96 458.667c0 8.107 3.84 17.493 9.387 23.467 5.973 6.4 15.36 10.24 23.893 10.667 0 0 0.427 0 0.853 0 12.8 0 26.453-8.96 31.573-20.907 5.12-12.373 1.707-28.587-7.68-37.547-6.4-5.973-15.36-9.387-24.32-9.387-4.267 0-8.533 0.853-12.373 2.56-11.947 5.12-20.907 18.347-20.907 31.573l-0.427-0.427zM243.627 458.667c0 8.96 4.267 18.773 10.667 24.747 2.987 2.987 7.253 5.547 11.52 6.827 2.56 0.853 5.12 1.707 7.68 2.133 8.96 1.28 17.067-1.28 23.467-5.973 5.547-3.84 9.813-8.96 12.373-14.507 5.12-11.947 2.133-27.733-6.827-37.12-6.4-6.4-15.787-10.24-25.173-10.24-3.84 0-8.107 0.853-11.52 2.133-12.373 4.693-21.333 18.773-21.333 31.573l-0.853 0.427zM392.96 330.667c0 8.107 3.413 17.067 8.96 23.040 5.547 6.4 14.933 10.667 23.893 11.093 0.427 0 1.28 0 1.707 0 12.8 0 26.453-8.96 31.573-20.907s1.707-28.16-7.253-37.547c-6.4-6.4-15.787-9.813-24.747-9.813-4.267 0-8.533 0.853-12.373 2.56-11.947 5.12-20.907 18.347-20.907 31.573h-0.853zM243.627 330.667c0 8.533 3.84 18.347 9.813 24.32 3.413 3.413 8.107 5.973 12.8 7.68 2.56 0.853 5.547 1.707 8.533 1.707 1.707 0 3.413 0 5.12 0 6.4-0.427 11.947-2.56 16.64-5.973 5.547-3.84 9.813-8.96 12.373-14.507 4.693-11.52 2.133-27.307-6.4-36.693-6.4-6.827-16.213-10.667-25.6-10.667-4.267 0-8.533 0.853-12.373 2.56-11.947 5.12-20.907 18.347-20.907 31.573zM458.667 215.894c5.12-12.373 1.707-29.013-8.107-37.973-5.973-5.973-15.36-8.96-23.893-8.96-4.267 0-8.533 0.853-12.373 2.56-11.947 5.12-20.907 18.347-20.907 31.573 0 8.533 3.84 17.92 9.813 23.893 5.547 5.547 14.507 9.387 22.613 9.813 0.427 0 1.28 0 1.707 0 12.8 0 26.453-8.96 31.573-20.907h-0.427zM309.333 215.894c5.12-11.947 1.707-28.16-7.253-37.547-6.4-6.4-15.787-9.813-24.747-9.813-4.267 0-8.533 0.853-12.373 2.56-11.947 5.12-20.907 18.347-20.907 31.573 0 8.107 3.413 17.067 8.96 23.040 3.413 3.413 7.68 6.4 12.373 8.533 3.413 1.707 7.253 2.56 11.093 2.56 0.427 0 1.28 0 2.133 0s1.28 0 2.133 0c5.973-0.427 11.52-2.56 15.787-5.547 5.547-3.84 10.667-8.96 13.227-14.933l-0.427-0.427z" />
<glyph unicode="&#xe945;" glyph-name="CalendarSchedule" d="M736.094 482.142c18.85 0 34.133-15.283 34.133-34.138 0-0.388-0.004-0.781-0.021-1.165-0.614-18.313-15.654-32.969-34.112-32.969-18.854 0-34.138 15.283-34.138 34.133 0 18.854 15.287 34.138 34.138 34.138zM586.658 482.142c18.85 0 34.133-15.283 34.133-34.138 0-0.388-0.009-0.781-0.021-1.165-0.619-18.313-15.654-32.969-34.116-32.969-18.85 0-34.133 15.283-34.133 34.133 0 18.854 15.283 34.138 34.138 34.138zM437.261 482.142c18.85 0 34.133-15.283 34.133-34.138 0-0.388-0.004-0.781-0.021-1.165-0.614-18.313-15.654-32.969-34.112-32.969-18.854 0-34.136 15.283-34.136 34.133 0 18.854 15.284 34.138 34.136 34.138zM287.865 354.091c18.852 0 34.134-15.283 34.134-34.138 0-0.388-0.007-0.781-0.021-1.169-0.616-18.308-15.654-32.964-34.115-32.964-18.852 0-34.134 15.283-34.134 34.133 0 18.854 15.284 34.138 34.135 34.138zM437.261 354.091c18.85 0 34.133-15.283 34.133-34.138 0-0.388-0.004-0.781-0.021-1.169-0.614-18.308-15.654-32.964-34.112-32.964-18.854 0-34.136 15.283-34.136 34.133 0 18.854 15.284 34.138 34.136 34.138zM586.658 354.091c18.85 0 34.133-15.283 34.133-34.138 0-0.388-0.009-0.781-0.021-1.169-0.619-18.308-15.654-32.964-34.116-32.964-18.85 0-34.133 15.283-34.133 34.133 0 18.854 15.283 34.138 34.138 34.138zM736.094 354.091c18.85 0 34.133-15.283 34.133-34.138 0-0.388-0.004-0.781-0.021-1.169-0.614-18.308-15.654-32.964-34.112-32.964-18.854 0-34.138 15.283-34.138 34.133 0 18.854 15.287 34.138 34.138 34.138zM736.094 226.036c18.85 0 34.133-15.283 34.133-34.133 0-0.393-0.004-0.781-0.021-1.169-0.614-18.308-15.654-32.964-34.112-32.964-18.854 0-34.138 15.283-34.138 34.133s15.287 34.133 34.138 34.133zM586.658 226.036c18.85 0 34.133-15.283 34.133-34.133l-0.004-0.457-0.017-0.713c-0.619-18.308-15.654-32.964-34.116-32.964-18.85 0-34.133 15.283-34.133 34.133s15.283 34.133 34.138 34.133zM437.261 226.036c18.85 0 34.133-15.283 34.133-34.133 0-0.393-0.004-0.781-0.021-1.169-0.614-18.308-15.654-32.964-34.112-32.964-18.854 0-34.136 15.283-34.136 34.133s15.284 34.133 34.136 34.133zM287.865 226.036c18.852 0 34.134-15.283 34.134-34.133 0-0.393-0.007-0.781-0.021-1.169-0.616-18.308-15.654-32.964-34.115-32.964-18.852 0-34.134 15.283-34.134 34.133s15.284 34.133 34.135 34.133c0 0 0 0 0 0zM255.841 842.828c-88.366 0-160-71.634-160-160v-512.32c0-88.367 71.634-160 160-160h512.321c88.363 0 160 71.633 160 160v512.319c0 88.366-71.637 160-160 160h-512.321zM864.162 629.407h-704.321v53.422c0 53.019 42.981 96 96 96h512.321c53.018 0 96-42.98 96-96v-53.422zM159.841 565.407h704.321v-394.897c0-53.022-42.982-96-96-96h-512.321c-53.019 0-96 42.978-96 96v394.897z" />
<glyph unicode="&#xe946;" glyph-name="Cards" d="M544 256c0 17.673-14.327 32-32 32h-85.333l-4.342-0.29c-15.619-2.121-27.658-15.509-27.658-31.71 0-17.673 14.327-32 32-32h85.333l4.343 0.29c15.616 2.121 27.657 15.509 27.657 31.71zM821.116 669.202c-4.083 72.923-64.508 130.798-138.449 130.798l-477.202-0.219c-72.923-4.079-130.798-64.505-130.798-138.447v-298.667l0.219-7.868c4.079-72.922 64.505-130.799 138.447-130.799h32v-32c0-76.582 62.083-138.667 138.667-138.667h426.667c76.582 0 138.667 62.084 138.667 138.667v298.667c0 72.995-56.401 132.816-128 138.263v32.404l-0.218 7.869zM885.333 490.667v-32h-576v32c0 41.237 33.429 74.667 74.667 74.667h426.667c41.237 0 74.667-33.429 74.667-74.667zM885.333 394.667v-202.667c0-41.237-33.429-74.667-74.667-74.667h-426.667c-41.237 0-74.667 33.429-74.667 74.667v202.667h576zM245.333 490.667v-202.667h-32l-6.124 0.247c-38.373 3.115-68.543 35.243-68.543 74.419v298.667l0.247 6.124c3.115 38.373 35.244 68.543 74.419 68.543l475.456-0.247c38.374-3.115 68.544-35.244 68.544-74.419v-32h-373.333c-76.584 0-138.667-62.083-138.667-138.667z" />
<glyph unicode="&#xe947;" glyph-name="ChartSquare-1" d="M544 544.047c0 17.673-14.327 32-32 32s-32-14.327-32-32v-234.765c0-17.673 14.327-32 32-32s32 14.327 32 32v234.765zM373.26 397.295c0 17.677-14.327 32-32 32s-32-14.323-32-32v-88.013c0-17.673 14.327-32 32-32s32 14.327 32 32v88.013zM682.739 517.355c17.673 0 32-14.327 32-32v-176.073c0-17.673-14.327-32-32-32s-32 14.327-32 32v176.073c0 17.673 14.327 32 32 32zM298.576 842.823c-111.963 0-202.737-90.775-202.737-202.737v-426.846c0-111.962 90.775-202.735 202.737-202.735h426.842c111.966 0 202.739 90.773 202.739 202.735v426.846c0 111.963-90.773 202.737-202.739 202.737h-426.842zM159.839 640.086c0 76.617 62.121 138.737 138.737 138.737h426.842c76.621 0 138.739-62.121 138.739-138.737v-426.846c0-76.617-62.118-138.735-138.739-138.735h-426.842c-76.617 0-138.737 62.118-138.737 138.735v426.846z" />
<glyph unicode="&#xe948;" glyph-name="ChartSquare" d="M725.35 490.761c11.746 11.75 11.746 30.794 0 42.541-11.75 11.747-30.793 11.747-42.543 0l-148.77-148.768-85.461 91.17c-5.687 6.067-13.632 9.51-21.946 9.51s-16.259-3.443-21.946-9.51l-106.711-113.839c-11.361-12.117-10.746-31.155 1.374-42.517s31.156-10.743 42.517 1.374l84.765 90.428 84.764-90.428c5.572-5.943 13.316-9.37 21.461-9.502s15.996 3.046 21.756 8.806l170.739 170.735zM341.172 842.823c-135.494 0-245.333-109.839-245.333-245.333v-341.652c0-135.497 109.839-245.333 245.333-245.333h341.653c135.497 0 245.333 109.837 245.333 245.333v341.652c0 135.494-109.837 245.333-245.333 245.333h-341.652zM159.839 597.49c0 100.148 81.185 181.333 181.333 181.333h341.652c100.147 0 181.333-81.186 181.333-181.333v-341.652c0-100.147-81.186-181.333-181.333-181.333h-341.653c-100.148 0-181.333 81.186-181.333 181.333v341.652z" />
<glyph unicode="&#xe949;" glyph-name="ChatMessage" d="M266.667 576c0 17.673 14.327 32 32 32h426.667c17.673 0 32-14.327 32-32s-14.327-32-32-32h-426.667c-17.673 0-32 14.327-32 32zM298.667 437.334c-17.673 0-32-14.327-32-32s14.327-32 32-32h298.667c17.673 0 32 14.327 32 32s-14.327 32-32 32h-298.667zM96 687.408c0 63.899 54.261 112.593 117.333 112.593h597.333c63.070 0 117.333-48.693 117.333-112.593v-402.961c0-63.902-54.263-112.593-117.333-112.593h-249.677l-170.694-143.407c-45.608-38.327-123.629-10.88-123.629 54.596v88.811h-53.333c-63.072 0-117.333 48.691-117.333 112.593v402.961zM213.333 736c-31.221 0-53.333-23.437-53.333-48.593v-402.961c0-25.156 22.112-48.593 53.333-48.593h85.333c17.673 0 32-14.327 32-32v-120.811c0-2.581 1.284-5.436 5.688-7.3 4.484-1.903 9.21-1.289 12.763 1.698l179.633 150.912c5.764 4.843 13.052 7.501 20.582 7.501h261.333c31.223 0 53.333 23.437 53.333 48.593v402.961c0 25.156-22.11 48.593-53.333 48.593h-597.333z" />
<glyph unicode="&#xe94a;" glyph-name="CheckMarkCircleFill" d="M85.333 426.667c0 235.662 191.005 426.667 426.667 426.667s426.667-191.005 426.667-426.667c0-235.661-191.006-426.667-426.667-426.667s-426.667 191.006-426.667 426.667zM705.293 489.374c12.497 12.497 12.497 32.757 0 45.254s-32.755 12.497-45.252 0l-190.707-190.704-105.373 105.37c-12.497 12.497-32.758 12.497-45.255 0s-12.497-32.755 0-45.252l128.001-128c12.497-12.497 32.755-12.497 45.252 0l213.333 213.333z" />
<glyph unicode="&#xe94b;" glyph-name="CheckMarkCircleOutlined" d="M705.293 489.374c12.497 12.497 12.497 32.757 0 45.254s-32.755 12.497-45.252 0l-190.707-190.704-105.373 105.37c-12.497 12.497-32.758 12.497-45.255 0s-12.497-32.755 0-45.252l128.001-128c12.497-12.497 32.755-12.497 45.252 0l213.333 213.333zM512 842.667c-229.769 0-416-186.231-416-416s186.231-416 416-416c229.769 0 416 186.231 416 416s-186.231 416-416 416zM160 426.667c0 194.423 157.577 352 352 352s352-157.577 352-352c0-194.423-157.577-352-352-352s-352 157.577-352 352z" />
<glyph unicode="&#xe94c;" glyph-name="CircleDelete" d="M325.31 797.821c160.211 80.841 354.212 49.724 481.103-77.167 126.895-126.891 158.012-320.893 77.167-481.106-7.962-15.778-27.204-22.114-42.982-14.153s-22.114 27.209-14.153 42.987c68.39 135.539 42.065 299.666-65.284 407.017s-271.479 133.676-407.019 65.283c-15.778-7.962-35.023-1.625-42.985 14.153s-1.625 35.023 14.153 42.985zM183.404 627.083c15.778-7.962 22.115-27.206 14.153-42.985-68.393-135.539-42.067-299.669 65.283-407.019s271.479-133.675 407.018-65.284c15.778 7.962 35.025 1.626 42.987-14.153s1.626-35.021-14.153-42.982c-160.213-80.845-354.216-49.728-481.107 77.163-126.891 126.895-158.008 320.896-77.167 481.107 7.962 15.778 27.207 22.115 42.985 14.153zM193.152 790.341c-12.497 12.497-32.758 12.497-45.255 0s-12.497-32.758 0-45.255l682.951-682.951c12.497-12.497 32.759-12.497 45.257 0s12.497 32.759 0 45.257l-682.953 682.949z" />
<glyph unicode="&#xe94d;" glyph-name="Clip" d="M537.63 784.866c77.137 77.137 202.185 77.137 279.322 0s77.137-202.188 0-279.326l-308.565-308.565c-47.74-47.74-125.173-47.74-172.912 0s-47.739 125.175 0 172.915l234.071 234.069c12.497 12.497 32.755 12.497 45.252 0s12.497-32.758 0-45.255l-234.068-234.071c-22.746-22.746-22.746-59.657 0-82.402s59.66-22.746 82.405 0l308.565 308.565c52.143 52.143 52.143 136.671 0 188.815s-136.674 52.143-188.817 0l-308.564-308.567c-81.54-81.54-81.54-213.683 0-295.223s213.686-81.54 295.226 0l187.264 187.264c12.497 12.497 32.755 12.497 45.252 0s12.497-32.759 0-45.257l-187.264-187.264c-106.534-106.534-279.199-106.534-385.734 0s-106.534 279.202 0 385.737l308.567 308.565z" />
<glyph unicode="&#xe94e;" glyph-name="ClockRefresh" d="M363.889 830.883c12.497 12.497 12.497 32.758 0 45.255s-32.758 12.497-45.255 0l-128.053-128.052c-3.068-3.068-5.383-6.604-6.944-10.379-1.565-3.773-2.428-7.91-2.428-12.249 0-4.132 0.783-8.081 2.209-11.707 1.561-3.978 3.948-7.706 7.163-10.921l0.17-0.169 127.884-127.884c12.497-12.497 32.758-12.497 45.255 0s12.497 32.758 0 45.255l-73.426 73.426h221.537c170.918 0 309.478-138.557 309.478-309.475s-138.56-309.474-309.478-309.474c-170.917 0-309.474 138.556-309.474 309.474 0 17.673-14.327 32-32 32s-32-14.327-32-32c0-206.263 167.211-373.474 373.474-373.474 206.268 0 373.478 167.211 373.478 373.474 0 206.265-167.215 373.475-373.478 373.475h-221.536l73.425 73.425zM509.513 519.123c0 17.673-14.327 32-32 32-17.677 0-32-14.327-32-32v-167.152c0-17.673 14.323-32 32-32h162.539c17.677 0 32 14.327 32 32s-14.323 32-32 32h-130.539v135.152z" />
<glyph unicode="&#xe94f;" glyph-name="ClockTimeFast" d="M95.841 426.663c0 229.839 186.321 416.16 416.159 416.16 229.841 0 416.162-186.321 416.162-416.16 0-229.837-186.321-416.158-416.162-416.158-17.673 0-32 14.323-32 32 0 17.673 14.327 32 32 32 194.492 0 352.162 157.666 352.162 352.158s-157.67 352.16-352.162 352.16c-194.47 0-352.124-157.633-352.159-352.096 0.11-26.283 3.231-52.467 9.303-78.042 4.082-17.195-6.548-34.445-23.743-38.524-17.195-4.083-34.444 6.545-38.526 23.74-7.207 30.357-10.909 61.436-11.034 92.634v0.128zM127.841 202.556c-17.673 0-32-14.327-32-32s14.327-32 32-32h213.422c17.673 0 32 14.327 32 32s-14.327 32-32 32h-213.422zM213.208 74.505c-17.673 0-32-14.327-32-32s14.327-32 32-32h128.053c17.673 0 32 14.327 32 32s-14.327 32-32 32h-128.053zM531.964 597.402c0 17.673-14.327 32-32 32s-32-14.327-32-32v-197.883c0-11.162 5.815-21.517 15.343-27.324l156.053-95.142c15.091-9.203 34.782-4.429 43.981 10.662s4.425 34.782-10.667 43.981l-140.71 85.79v179.916z" />
<glyph unicode="&#xe950;" glyph-name="Close" d="M278.627 705.294c-12.497 12.497-32.758 12.497-45.255 0s-12.497-32.758 0-45.255l233.371-233.373-233.371-233.374c-12.497-12.497-12.497-32.755 0-45.252s32.758-12.497 45.255 0l233.373 233.37 233.374-233.37c12.497-12.497 32.755-12.497 45.252 0s12.497 32.755 0 45.252l-233.37 233.374 233.37 233.373c12.497 12.497 12.497 32.758 0 45.255s-32.755 12.497-45.252 0l-233.374-233.371-233.373 233.371z" />
<glyph unicode="&#xe951;" glyph-name="Cloud" d="M517.329 757.334c-134.472 0-247.171-92.477-278.825-217.009-106.247-17.317-187.734-108.867-187.734-220.325 0-123.699 100.3-224 224-224h66.56c17.673 0 32 14.327 32 32s-14.327 32-32 32h-66.56c-88.353 0-160 71.646-160 160 0 85.372 67.212 154.748 151.899 159.061 15.036 0.764 27.505 11.908 29.949 26.765 17.479 106.253 109.693 187.507 220.71 187.507 123.554 0 224-100.446 224-224v-42.667c0-17.673 14.327-32 32-32h18.56c64.589 0 117.333-52.745 117.333-117.333s-52.745-117.333-117.333-117.333h-109.227c-17.673 0-32-14.327-32-32s14.327-32 32-32h109.227c99.938 0 181.333 81.399 181.333 181.333 0 95.415-74.202 173.931-167.893 180.838v11.162c0 158.9-129.097 288-288 288zM489.374 456.418c12.497 12.497 32.755 12.497 45.252 0l92.459-92.459c12.497-12.497 12.497-32.755 0-45.252s-32.755-12.497-45.252 0l-37.833 37.828v-228.535c0-17.673-14.327-32-32-32s-32 14.327-32 32v228.535l-37.833-37.828c-12.497-12.497-32.756-12.497-45.253 0s-12.497 32.755 0 45.252l92.46 92.459z" />
<glyph unicode="&#xe952;" glyph-name="CodeBlock" d="M594.897 799.24c17.25-3.838 28.126-20.935 24.286-38.186l-151.893-682.666c-3.84-17.25-20.937-28.126-38.187-24.286s-28.124 20.932-24.285 38.187l151.893 682.665c3.84 17.251 20.937 28.125 38.187 24.286zM745.374 619.964c12.497 12.497 32.755 12.497 45.252 0l170.667-170.666c12.497-12.497 12.497-32.759 0-45.257l-170.667-170.667c-12.497-12.497-32.755-12.497-45.252 0s-12.497 32.759 0 45.257l148.036 148.041-148.036 148.038c-12.497 12.497-12.497 32.758 0 45.255zM278.627 574.709c12.497 12.497 12.497 32.758 0 45.255s-32.758 12.497-45.255 0l-170.667-170.666c-12.497-12.497-12.497-32.759 0-45.257l170.667-170.667c12.497-12.497 32.758-12.497 45.255 0s12.497 32.759 0 45.257l-148.039 148.041 148.039 148.038z" />
<glyph unicode="&#xe953;" glyph-name="Copy" d="M266.578 181.24v-53.402c0-64.802 52.532-117.333 117.334-117.333h426.917c64.798 0 117.333 52.531 117.333 117.333v426.915c0 64.802-52.535 117.333-117.333 117.333h-53.41v53.368c0 64.821-52.544 117.369-117.367 117.369h-426.844c-64.821 0-117.369-52.548-117.369-117.369v-426.843c0-64.823 52.548-117.372 117.369-117.372h53.37zM159.839 725.454c0 29.475 23.894 53.369 53.369 53.369h426.844c29.474 0 53.367-23.894 53.367-53.369v-53.368h-309.507c-64.801 0-117.333-52.532-117.333-117.333v-309.513h-53.37c-29.475 0-53.369 23.893-53.369 53.372v426.843zM725.193 608.086h85.636c29.453 0 53.333-23.878 53.333-53.333v-426.915c0-29.457-23.881-53.333-53.333-53.333h-426.917c-29.455 0-53.334 23.876-53.334 53.333v426.915c0 29.455 23.878 53.333 53.333 53.333h341.281z" />
<glyph unicode="&#xe954;" glyph-name="Coupon" d="M469.333 725.76c0 17.494 14.507 32 32 32s32-14.506 32-32c0-17.493-14.507-32-32-32s-32 14.507-32 32zM917.333 121.6c0-37.547-16.213-74.667-43.947-101.12-28.16-26.453-64.853-40.96-104.107-40.96h-535.467c-19.2-0.427-38.4 2.987-56.32 9.813-17.92 7.253-34.133 17.493-48.213 30.293-14.080 13.227-25.173 29.013-32.427 46.080-7.68 17.92-11.52 36.693-11.52 55.467v458.667c0 27.307 7.68 54.187 21.333 78.080s33.28 43.947 56.747 58.88l244.053 153.173c55.893 34.987 131.84 34.987 187.733 0l244.053-152.747c23.893-14.933 43.52-35.413 56.747-58.88 13.653-23.893 20.907-51.2 20.907-78.080v-458.24l0.427-0.427zM853.76 121.6v458.24c0 16.214-4.693 32.427-12.8 46.507-8.107 14.507-20.48 26.88-34.987 36.267l-244.48 152.747c-17.92 11.093-38.4 17.067-60.16 17.067s-42.24-5.973-59.733-17.067l-244.48-152.32c-14.507-8.96-26.88-21.76-34.987-36.267s-12.373-30.293-12.373-46.507v-458.667c0-10.24 1.707-20.053 5.547-29.013 4.267-9.387 10.24-17.92 17.92-25.6s17.067-13.227 27.307-17.493c10.24-3.84 21.333-5.973 32.853-5.973h535.467c22.613 0.427 44.373 8.96 60.16 23.893 15.36 14.507 23.893 34.133 23.893 54.613l0.853-0.427zM373.333 405.76c-52.907 0-96 43.093-96 96s43.093 96 96 96c52.907 0 96-43.093 96-96s-43.093-96-96-96zM405.333 501.76c0 17.493-14.507 32-32 32s-32-14.507-32-32c0-17.493 14.507-32 32-32s32 14.507 32 32zM725.333 245.76c0-52.907-43.093-96-96-96s-96 43.093-96 96c0 52.907 43.093 96 96 96s96-43.093 96-96zM661.333 245.76c0 17.493-14.507 32-32 32s-32-14.507-32-32c0-17.493 14.507-32 32-32s32 14.507 32 32zM613.973 561.067c-15.36 9.387-34.987 4.267-43.947-11.093l-192-320c-8.96-15.36-4.267-34.987 11.093-43.947 5.12-2.987 10.667-4.693 16.213-4.693 10.667 0 21.333 5.547 27.307 15.36l192 320c8.96 14.933 4.267 34.987-11.093 43.947l0.427 0.427z" />
<glyph unicode="&#xe955;" glyph-name="CreditCardCheckmark" d="M95.839 640.093v-341.477c0-88.393 71.658-160.051 160.053-160.051h170.737c17.671 0 31.999 14.327 31.999 32s-14.327 32-31.999 32h-170.737c-53.049 0-96.053 43.004-96.053 96.051v266.791h704.319v-96.052c0-17.673 14.327-32 32-32s32 14.327 32 32v170.738c0 88.395-71.659 160.053-160.051 160.053h-512.215c-88.395 0-160.053-71.658-160.053-160.053zM159.839 640.093c0 53.049 43.004 96.053 96.053 96.053h512.215c53.047 0 96.051-43.005 96.051-96.053v-10.686h-704.319v10.686zM266.578 426.671c0 17.673 14.327 32 32 32h106.711c17.673 0 32.001-14.327 32.001-32 0-17.677-14.328-32-32.001-32h-106.711c-17.673 0-32 14.323-32 32zM814.468 269.044c12.497-12.497 12.497-32.759 0-45.257l-82.978-82.978c-12.497-12.493-32.751-12.497-45.248-0.009l-49.856 49.809c-12.501 12.493-12.51 32.755-0.017 45.257 12.489 12.501 32.751 12.51 45.252 0.021l27.23-27.204 60.361 60.361c12.497 12.497 32.759 12.497 45.257 0zM522.684 213.248c0-111.97 90.769-202.739 202.735-202.739 111.97 0 202.739 90.769 202.739 202.739 0 111.966-90.769 202.735-202.739 202.735-111.966 0-202.735-90.769-202.735-202.735zM586.684 213.248c0 76.621 62.114 138.735 138.735 138.735 76.625 0 138.739-62.114 138.739-138.735 0-76.625-62.114-138.739-138.739-138.739-76.621 0-138.735 62.114-138.735 138.739z" />
<glyph unicode="&#xe956;" glyph-name="CreditCardUser-1" d="M96 682.667v-341.333c0-88.367 71.634-160 160-160h213.333c17.673 0 32 14.327 32 32s-14.327 32-32 32h-213.333c-53.019 0-96 42.982-96 96v266.667h704v-53.333c0-17.673 14.327-32 32-32s32 14.327 32 32v128c0 88.366-71.633 160-160 160h-512c-88.366 0-160-71.634-160-160zM160 682.667c0 53.019 42.981 96 96 96h512c53.018 0 96-42.981 96-96v-10.667h-704v10.667zM266.667 469.334c0 17.673 14.327 32 32 32h107.563c17.673 0 32-14.327 32-32s-14.327-32-32-32h-107.563c-17.673 0-32 14.327-32 32zM686.588 202.667h120.158c66.889-0.192 121.062-54.366 121.254-121.254v-17.412c0-29.457-23.876-53.333-53.333-53.333h-256c-14.144 0-27.712 5.619-37.713 15.62s-15.62 23.569-15.62 37.713v17.412c0.192 66.889 54.366 121.062 121.254 121.254zM686.729 138.667c-31.65-0.111-57.284-25.745-57.395-57.395v-6.605h234.667v6.605c-0.111 31.65-25.745 57.284-57.395 57.395h-119.876zM746.667 480c-64.802 0-117.333-52.531-117.333-117.333s52.531-117.333 117.333-117.333c64.802 0 117.333 52.531 117.333 117.333s-52.531 117.333-117.333 117.333zM693.333 362.667c0 29.457 23.876 53.333 53.333 53.333s53.333-23.876 53.333-53.333c0-29.457-23.876-53.333-53.333-53.333s-53.333 23.876-53.333 53.333z" />
<glyph unicode="&#xe957;" glyph-name="CreditCardUser" d="M96 682.667v-341.333c0-88.367 71.634-160 160-160h213.333c17.673 0 32 14.327 32 32s-14.327 32-32 32h-213.333c-53.019 0-96 42.982-96 96v266.667h704v-53.333c0-17.673 14.327-32 32-32s32 14.327 32 32v128c0 88.366-71.633 160-160 160h-512c-88.366 0-160-71.634-160-160zM160 682.667c0 53.019 42.981 96 96 96h512c53.018 0 96-42.981 96-96v-10.667h-704v10.667zM266.667 469.334c0 17.673 14.327 32 32 32h107.563c17.673 0 32-14.327 32-32s-14.327-32-32-32h-107.563c-17.673 0-32 14.327-32 32zM686.588 202.667h120.158c66.889-0.192 121.062-54.366 121.254-121.254v-17.412c0-29.457-23.876-53.333-53.333-53.333h-256c-14.144 0-27.712 5.619-37.713 15.62s-15.62 23.569-15.62 37.713v17.412c0.192 66.889 54.366 121.062 121.254 121.254zM686.729 138.667c-31.65-0.111-57.284-25.745-57.395-57.395v-6.605h234.667v6.605c-0.111 31.65-25.745 57.284-57.395 57.395h-119.876zM746.667 480c-64.802 0-117.333-52.531-117.333-117.333s52.531-117.333 117.333-117.333c64.802 0 117.333 52.531 117.333 117.333s-52.531 117.333-117.333 117.333zM693.333 362.667c0 29.457 23.876 53.333 53.333 53.333s53.333-23.876 53.333-53.333c0-29.457-23.876-53.333-53.333-53.333s-53.333 23.876-53.333 53.333z" />
<glyph unicode="&#xe958;" glyph-name="CreditCheckout" d="M96 597.334v-298.667c0-17.673 14.327-32 32-32s32 14.327 32 32v224h704v-266.667c0-53.026-42.974-96-96-96h-128c-17.673 0-32-14.327-32-32s14.327-32 32-32h128c88.371 0 160 71.629 160 160v341.333c0 88.372-71.629 160-160 160h-512c-88.372 0-160-71.628-160-160zM160 597.334c0 53.026 42.974 96 96 96h512c53.026 0 96-42.974 96-96v-10.667h-704v10.667zM266.667 384c0 17.673 14.327 32 32 32h106.667c17.673 0 32-14.327 32-32s-14.327-32-32-32h-106.667c-17.673 0-32 14.327-32 32zM128 160c-17.673 0-32-14.327-32-32s14.327-32 32-32h264.079l-30.706-30.707c-12.497-12.497-12.497-32.755 0-45.252s32.758-12.497 45.255 0l85.332 85.333c3.068 3.068 5.385 6.605 6.946 10.377 1.566 3.772 2.428 7.91 2.428 12.25s-0.862 8.478-2.428 12.25c-1.562 3.772-3.878 7.309-6.946 10.377l-85.332 85.333c-12.497 12.497-32.758 12.497-45.255 0s-12.497-32.755 0-45.252l30.706-30.707h-264.079z" />
<glyph unicode="&#xe959;" glyph-name="MoonStar" d="M683.605 554.24c14.080-14.080 32.427-21.76 52.48-21.76 19.627 0 38.4 7.68 52.48 21.76l64.853 64.853c14.080 14.080 21.76 32.427 21.76 52.48s-7.68 38.4-21.76 52.48l-64.853 64.853c-14.080 14.080-32.427 21.76-52.48 21.76-19.627 0-38.4-7.68-52.053-21.76l-64.853-64.853c-14.080-14.080-21.76-32.427-21.76-52.48s7.68-38.4 21.76-52.48l64.853-64.853h-0.427zM663.979 678.4l64.853 64.853c2.56 2.56 5.12 2.987 6.827 2.987s4.693 0 7.253-2.987l64.853-64.853c2.56-2.56 2.987-5.12 2.987-7.253 0-1.707 0-4.693-2.987-7.253l-64.853-64.853c-2.56-2.56-5.547-2.987-7.253-2.987 0 0-4.693 0.427-7.253 2.987l-64.853 64.853c-2.56 2.56-2.987 5.547-2.987 7.253s0.427 4.693 2.987 7.253h0.427zM797.952 414.72c-91.307-44.373-201.813-26.453-274.347 43.947-70.827 72.96-88.747 183.467-44.373 274.773 8.96 18.347 6.4 40.533-6.4 56.747-12.8 15.787-33.707 23.467-54.615 18.347-66.56-17.067-127.573-51.627-175.787-99.84-149.76-145.92-153.173-386.987-6.4-537.6 73.813-71.68 169.387-107.52 264.962-107.52 95.573 0 197.547 38.4 271.787 114.347 48.64 48.64 83.2 109.653 100.267 176.64 4.693 20.053-2.56 41.387-18.347 54.187-16.213 12.8-37.973 15.36-56.32 6.4l-0.427-0.427zM727.125 222.294c-121.173-124.587-321.708-127.147-445.868-6.4-121.173 124.587-118.613 324.693 6.4 446.72 35.413 34.987 78.080 61.44 125.013 77.227-43.52-110.933-18.347-239.36 66.135-326.4 86.613-84.053 214.613-109.227 325.973-65.707-15.787-46.933-42.24-90.027-77.227-125.44h-0.427z" />
<glyph unicode="&#xe95a;" glyph-name="Delete" d="M363.961 619.961c-12.497 12.497-32.758 12.497-45.255 0s-12.497-32.758 0-45.255l148.038-148.039-148.038-148.041c-12.497-12.497-12.497-32.755 0-45.252s32.758-12.497 45.255 0l148.039 148.036 148.041-148.036c12.497-12.497 32.755-12.497 45.252 0s12.497 32.755 0 45.252l-148.036 148.041 148.036 148.039c12.497 12.497 12.497 32.758 0 45.255s-32.755 12.497-45.252 0l-148.041-148.038-148.039 148.038z" />
</font>
</defs>
</svg>
